&title=森の小さなレストラン
&artist=手嶌葵
&first=-3.7
&lv_5=13+
&des_5=マンゴ
&inote_5=
(56){4},,,,E8,
E4,E6,E2,
{12}E8,E7,E6,E2,E3,E4,D8,D7,D6,Ch[12:1],{6},{12}6<1[8:1],
6,6,2-5[8:1],2,2,7q3[8:1],7,7,4>7[8:1],{6},{12}5q1[8:1],
5,5,4p8[8:1],4,4,6p3[16:3],6,6,4x,{6},{12}1>4[12:1],
5,5,1q5[12:1],6,6,1v6[12:1],7,7,1,{6},{12}7qq5[12:1],
3,3,7q4[12:1],2,2,7>3[12:1],1,1,7x<4[12:1],{6},{12}4/7>2[12:1],
3,2,3/7<4[12:1],4,5,3/7pp2[6:1],2,1,7,{6},{12}3p7[16:1],
1,8,6q2[16:1],5,4,3pp6[6:1],1,{3}8,
{12}7-4[12:1],7h[12:1],,7-2[8:1],7h[12:1],,{2}7<7[4:1],
{12}4z8[8:1],4,4,5s1[8:1],5,5,{4}1w5[8:1],1b,
{12}8,B3/E4,B6/E6,2,E8/B8,E6/B5,{6}7<4[12:1],{24}E3,E2,{12}E1,,1,
7h[6:1],B1/A1,B5/A5,3h[6:1],B8/B1,B5/B4,{6}7h[6:1],{24}B8,C,{12}B4,,7,
{6}6q5[4:1],{12}5,5>1[4:1],,1,{6}1q7[6:1],{12}8,8,,2,
6v4-2[6:1],6/2h[12:1],,1,1,1,{6}8-4[8:1],{24}E7,C,{4}E3,
{12}7-4[12:1],4-1[12:1],1-7[12:1],7,3,2,{8}2>4[12:1],{24}7,8,1,{4}2,
{12}5-8[12:1],8-3[12:1],3-6[12:1],5,1,2,{8}4q6[8:1],{24}7,6,5,{4}4,
{12}6<8q4[6:1],5,4<6[12:1],6/3,2,1,{8}8-4[12:1],{24}3,6,1,{4}8,
{12}7-3[24:1],8xh[12:1],,7/2-6[24:1],1bh[12:1],{16},{48},{8}2,{24}7,4,6,{4}2>4[12:1],
{12}7<5[12:1],8,1,2>4[12:1],1,8,{24}7-5b[12:1],8,{16},{48},{12}1,7/2,{16},,{24},{8}7h[6:1],
{24}8,5,4,{8}2h[6:1],{24}1,4,5,{8}7h[6:1],{24}8,5,4,{4}2-6[12:1],
{24}8<3[4:1],8,{12}8,{16},{48},{24}3>6[4:1],3,{6}3,{24}6>4-8[6:1],{16},{48},{24}3,,3,{4}3,
{12}2-6[12:1],6-2[12:1],8-4[12:1],2,7,8,{8}1-3-7-5[8:1],{24}8,8,8,{4}8,
{12}7-4[12:1],4-7[12:1],3-6[12:1],7,2,3,{6}8-4-2v5[6:1],{24}B6,C,{12}B2,,1,
2-6[12:1],6-2[12:1],1-5[12:1],2,8,1,{6}3q4-6[8:1],{24}E7,E8,{12}E1,,7,
8-5[12:1],5-8[12:1],8-3[12:1],8,4,{24}4,4,{6}4-1-7[8:1],{12}B5/B6,B5/B6,,5,
8/5p8[12:1],8/5,,5/1p4[12:1],1,1,{6}1>3[12:1]*<6[12:1],{24}8,8,{4}1b,
3b-6-3b[6:1],7b-2-7b[6:1],{12}4,{24}3,3,{48},{16}3x,{4},{8}7<4[24:1],
{24}3,2,1,{8}8>3[24:1],{24}5,6,7,{8}8-4[12:1],{24}3,2,1,{4}8,
{12}5/6-1[12:1],8/1-3[12:1],3-6[12:1],6,4,4,{6}4h[6:1],{24}E8,B8,{4}B7,
{24}7-5[12:1],7,{16},{48},{12}E4/A3,{24}2-4[12:1],2,{16},{48},{12}E6/A6,{16},{48},{24}E8,E7,{12}E6,Ch[24:1],{16},,{24},(48)5-8>1[24:7],
5,{16},,{24},(44)1-4[24:7],1,{16},,{24},(40)4<5[4:3],4,{16},,{24},(35.5){4}3h[2:1],
,,{32}8x-4[2.8521##2.2183],{16},,{32}E2,,E3,{16},{64},,,E7,,,,E6,{4},{16},,{64},{192},(42){12}1h,
7h,2h,6h,3h,5h,4h,{24}7x,3x,
{64},6x,,,,5x,,,,4xh[64:23],
