&title=endemize
&artist= あとぅす feat.つゆり花鈴
&first=0.245
&des_5=Elna x Aria
&lv_5=13+
&des=Elna x Aria
&inote_5=(150),
6h[4:3]/4h[16:1],4,4>1[8:1],4,
8h[4:3]/7h[16:1],7,7<4[8:1],7,2h[4:3]/3h[16:1],3,3<6[8:1],3,
7h[2:1]/1h[16:1],1,
{32}B1,B2,E3,B3,B4,,,,
{8}5-8[8:1],5,5/3x,,
B1/B2,,6<1[8:1],,B7/B8,,2x>5[8:1],,B4/B3,,
7x-3[8:1],,B1/B2,,1x/4x,1,2/5,2,3x/6x,3,
{16}5,4,5,B2,4,3,B7,5,6,E2,4,3,E8,5,6,C,7s3[4:3],3,6,2,,,,,,,,,,,,,,,,,
{8}1b<6[8:1]*>4[8:1]/5b,,,,
5b-2[8:1],,,,1b-6[8:1],,8b,,
{16}7b,5,,5,,6/4,,5,3b>8[8:1],,
{8}4,5/3,6-1[8:1],5-2[8:1],6,5,7,
8-4[8:1],8,2>5[8:1],2,7-3[8:1],6,7/3,2,5b/1b,
{16}3,4,2v5[8:1],,5,,7h[4:1],,,,4,4,6,6,3>8[8:1],,
{8}5,7/3,6,5-1[8:1],1,5/3,2,2b>5[8:1],5v2[8:1],6,7,8b<5[8:1],5v8[8:1],4,3,
{16}1b,,,7b/3b,,,8b/4b,,1b<6[8:1]/5b>2[8:1],,,,
1x/5x,,,,
1x/5x,,3,4,2,,2,,5/3,,6,,7/4,,7/4,,6<3[4:1],,
{8}4,3>6[4:1],4,5,,4,3,4/2,
{16}5,4,6,,2,4,
{8}3-5[8:1],2,1-3[8:1],1,6,7-5[8:1],7-3[8:1],,,4,4,5/3,6b/2b,
{16}8,1,7,,7,,6/4,,3,,
{8}5/2,5/2,3>6[4:1],5,6<3[4:1],5,4b,5x-1[8:1],6x,5x/4x,
2b,8/3,7,6/1,2b,4/3,5,
{16}3,4,2x,6,5,6x,3,4,1x,
{32}7,6,5x,,
{16}3,4,3x,6,5,7x,,
{8}8x<3[1:1]/4x,,
{4}4,3,2,1,2h[4:1],1v4[8:1],3>8[8:1],6p4[8:5],1x,2,3,
{8}2>4[8:1],2,7<5[8:1],7,1,,
2/4,2,4<8[4:3]/3,,
{4}2,1,
{8}E2,E3,E4,,
5>2[4:1],,6,,7,
{16}7,1,8,,8,,1/2,,3,4,2,,2,,
5,3,6,4,7,3,8,2,
{24}7,6,5,
{16},
{24}1,2,3,
{16},
5,4,6xh,5,7,4,8b,,
2,4,3,,3v8[8:1],,8V25[4:1],,8,,7,,
{8}6,8-4[8:1],2-5[8:1],8,2,6h[4:1],,4,5/3,4/2,
{16}6,5,7,,
{8}7-4[8:1],4V61[4:1],4,3,2,3b<6[8:1],
{16},6x/3x,,,7,,8/1w5[8:1],,
{8},1,,
7b/3b,
{16}7,5,
{8}6,6v1[8:1],1V74[4:1],1,2,3,2V46[16:3],
{16},2x/6x,,,7,,8-4[8:1],,,,
{8}8/1,2,3b/5b,3,6/4,6,
{16}E3,E7,E2,E8,B2,B7,E4,E6,
{8}2x,2x/4x,7x,7x/5x,
{24}1,8,1,
{16}8,2,7,3,6,4,5b,,
{8}6/4,4,5/3,
{16}2,4,2,4,
{24}E3,E4,E5,
{16}6x,5x,7,4,7,4,8,3,8,3,
{24}E7,B6,B5,E3,B3,B4,E8,B7,B6,E2,B2,B3,
{8}8x/4x,8x/4x,6/2,6/2,5/3,5/3,6/4,6/4,
3h[8:1],4h[8:1],5h[8:1],6h[8:1],7h[8:1],8h[8:1],
{32}1x-5[8:1],2,3,4,5V38[4:1],6,7,8,1b,,,,
{16},7xh[16:3],,,,,
{8}6/1,5,
{16}2,2,4,4,
{8}3-8[8:1],5-1[8:1],3,5,2h[4:1],,1-5[8:1],8,7/1,7,
6/4-7[8:1],3,2-5[8:1],1,8,7<2[4:1],7,2>7[4:1],1,8,1-6[8:1],2-5[8:1],1x,2x,7b,
{16}7,5,6<1[8:1],,5,,6/4,,3,,2,2,1,1,3-8[8:1],,
{8}4,5-2[8:1],6,7-4[8:1],8-3[8:1],7x,8x,6b<1[8:1],,6/3<6[8:1],,3/8,,7x/1x,
{16}2,4,
{8}3>8[8:1],4,5/3,
{16}6,,7,7,,8,8,7,1,6,2v5[8:1],,3,8,2,,7,,6/1,,6/1,,2,5,3,,
{8}6-4[8:1],2-6[8:1],6,2,7h[4:1],,8-4[8:1],1,8/2,2,
3/5-2[8:1],6,7-4[8:1],8,1,2>7[4:1],8,7<2[4:1],8,1,8-3[8:1],7-4[8:1],8x,7x,2b,
{16}2,4,3v8[8:1],,
{8}2,5/3,6,
{16}7,7,1,1,
{8}8-3[8:1],7,6-1[8:1],5,4-8[8:1],3,2,1,
7/1,7,7/5,7,
{16}7,5,6,4,5,3,4,2,Cf,,,7b/3b,,,8b/4b,,1b/5h[4:1],,1x,,
8,7,6,5,4b/3h[2:1],,
{8},5,5,4,4,3,4,5h[2:1]/2,,3,3,4h[8:1],6,7h[8:1]/5h[8:1],,
8qq7[4:1]/4,
{16},2h[8:1],,,2h[8:1],,,,
{8}8x/3x,4,5,6-2[8:1]/4,,6/1-5[8:1],,7-3[8:1]/1,,7/2x,2x,4b/1b,
{16}3,4,,5,4,,5,4,6,5,7,4,8,,8b/4b,,
6,5,,4,5,,4,5,3,4,2,5,1,,
5b/1b,,2,,8/4,,7,5,6b,,5/4,,3,4,2,5,
{24}E3,B3,B4,
{16}6x,5x,7b,4,7b,4,6,5,7,4,
{24}E7,B6,B5,E3,B3,B4,
{4}Ch[1:1],1xh[8:1],1h[8:1],1h[8:1],
{8}1,2,3,5/4,6x/Ch[1:1],,
7h[8:1],,7h[8:1],,7h[8:1],,7,6,5,4/3,5/2V47[4:1],6,7V52[4:1],8,8,1,1,8x,7/1,
{16}2x,2xh[16:3],,,
4,,4,,3,,5,4,6,,6,,
{8}7-4[8:1]/4,7/4,1-5[8:1],1,6-1[8:1],6,3,
2x>5[8:1],2,7x>2[8:1],7,4x<7[8:1],4,1x>4[8:1],1,
8qq4[2:1]*pp4[2:1],,,,,,,,
6b-1[8:1]/2b,
{16}5,4,6>3[8:1],,2,,6x/3x,,2,,2-5[8:1],1,3,,
{8}8v3[8:1]/2,7<4[8:1],8,7,2-4[8:1],,7-1[8:1]/2,6,7qq5[8:1]/3pp5[8:1],,
7-1[8:1]/3-1[8:1],,7/3,,6x/4x,6x/4x-7[8:1],3,2-5[8:1],1,8,7qq3[8:3],8,8-2[8:1],1,8b-4[8:1],,8x/6x<1[8:1],5,6/3,,
{16}2,2,1,1,
{8}3-8[8:1],4,5-2[8:1],6,7-4[8:1],8-3[8:1],7,8,6x,7x/5x,3,4/2,7,8/6,2,1/3,
{16}8,5,6,3,4,2,6,5,
{32}7,8,1,2,3,4,5,6,7-3[8:1],8,1,2,3,4,5,6,
{1}7b>6[4:11]/1h[1:3]`Cf,,,
{4},
E
