&title=フィッシュアンドTips(初音ミク)
&artist=ど~ぱみん
&first=0.57
&des=TeleAki
&des_5=TeleAki
&lv_5=14
&inote_5=(160){4},,,,5x/3x,
{8}5/3,3,5,3,5,2,
5/2,2,5,2q4[4:1],5,6x,{4}7,
4x/8x,{8}4/8,8,4,8,4,7,
4/7,7,4,7pp5[4:1],4,3x,{4}2h[8:1],
5x/2h[8:1],{8}6/2h[8:1],6,2h[8:1],8,2h[8:1],7,
7/3h[8:1],6,3h[8:1],6,3h[8:1],5,3h[8:1]/7>3[4:1],7,
{4}3x<7[4:1],7x-1-4[4:1],4x-6-2[4:1],{8}2x<7-4[4:1],3x,
,4x,3x,2x,{4}1xw5b[8:1],1x,
5/4bh[4:3],5,5,5,
6/3h[4:3],6,7,7,
2/E1,2/E8,2/E7,{8}2/E6,5xh[4:1],
{4}1,{8}1/5,6,{4}7/1-5[8:1],{24}1/B5,B6,{6}B7,
{8}8x/3,8,8,8,8/2x,2,2,2,
6x/2,6,4,4,7x/4,7,2,2,
{16}8x,1,8,1,7x,2,7,2,6x,3,6,3,{32}5x,4,3,2,1,8,7,6,
{4}5/1b-3[8:1],7x-5[8:1],{2}8x-4[8:1],
{4}B5,{8}B5,B4,{4}B5,{8}B5,B4,
B5,B5,B4,B4,{2}B5/B4,
{4}5b/4b,{8}5,4,{4}5,{8}5,4,
5,5,4,4,{4}5b/4b,Ch[4:1]/1>4[8:1],
1b-5[8:1],{8}1-3[8:1]/7-3[8:1],8,{4}1/7-5[8:1],{8}7/1-3[8:1],8-4[8:1],
1-5[8:1],8-6[8:1],1>7b[4:1],8,{4}1,8xv5[8:1],
8b-3[8:1],{8}8<6[8:1]/2-6[8:1],1,{4}8/2>4[8:1],{8}2/8-5[8:1],1-6[8:1],
8-3[8:1],1-4[8:1],8qq2b[16:5],1,8,{16}3x,3x,,5x,{8}5x,
{16}2-5[8:1],1,,1,{8}2,1x,{16}7-4[8:1],8,,8,{8}7,8x,
1-5[16:1],1,{16}7-3[16:1],,,2-6[16:1],,,{8}8,{4}8,
{8}4/5,4/5,{16}3,6,3,6,2-7[16:1],,,2/6-3[16:1],,,{8}6/1h[4:1],
,5,{4}6h[4:1],{16}1-5[8:1],2,3,4,{4}1b/5,
A7/D8/A8/D1/A1/D2/A2/B2/C/E5/D5,{8}4b/7b,3,{4}2/1v4[8:1],{8}1/7-3[8:1],8-2[8:1],
7-5[8:1],8-4[8:1],7>5b[4:1],8,{4}7,1xv6[8:1],
1b>4[8:1],{8}1q5[8:1]/7<4[8:1],8,{4}1/7q3[8:1],{8}7/2-5[8:1],1-6[8:1],
2>4[8:1],1<7[8:1],2qq5b[16:5],1,2,{16}6x,6x,,4x,{8}4x,
{16}6-1[8:1],5,,5,{8}6,5x,{16}3-8[8:1],4,,4,{8}3,4x,
7-3[16:1],7,{16}2-6[16:1],,,8-4[16:1],,,{8}1,{4}1,
{8}3/6,3/6,{16}2,7,2,7,1-4[16:1],,,1/5-8[16:1],,,{8}5/3h[4:1],
,7,{4}6h[4:1],{8}2,2,8w4[8:1],8,
{32}8b,B8,C,B5/B4/B3,,,,,{4}4,4,4,
4/E6,4/E6,4/E6,4/E6,
2/E6,2/E7,2/E8,{8}2/E1,8xh[4:1],
{4}2,{8}2/8,7,{4}6/2-6[8:1],{24}2/B5,B6,{6}B7,
{8}5/4x,4,4,4,4/7x,7,7,7,
7/1x,1,6,6,6/3x,3,8,8,
{16}2x,6,2,6,1x,5,1,5,8x,4,8,4,{32}7x,6,5,4,3,2,1,8,
{4}7/6b-2[8:1],5-1[8:1],{2}4-8[8:1],
{12}E7,E8,E1,E3,E4,E5,E8,E1,E2,E4,E5,E6,
A7,A8,A1,A3,A4,A5,D8,D1,D2,Ch[4:1],,,2b,
3,4,6x,7,8,3x,4,5,7x,8,1,
2x,3,4,5x,6,7,1x-5[8:1],2,3,4x,,,7x,
6,5,4/1x,2,3,4/6x,7,8,1/2x,3,4,
5/8x,7,6,5/3x,2,1,7x/8z4[8:1],6,5,4x,,,{4}3x/6xpp5[3:1],
{12}4,3,2,{4}1x-5[12:7],{12}8,7,6,
4x,3,2,1-7-3[8:3],,6,{4}6x-4[8:1],6x,
7x/2xq4[3:1],{12}5,6,7,{4}8x-4[12:7],{12}1,2,3,
5x,6,7,8>2-6[8:3],,3,{4}3x-7[8:1],3x,
A7/D8/A8/D1/A1/D2/A2/B2/C/E5/D5,{8}5b/2b,6,{4}7/8p4[8:1],{8}8/2-6[8:1],1-5[8:1],
2-4[8:1],1-7[8:1],2<4b[4:1],1,{4}2,8xv3[8:1],
8b<5[8:1],{8}8p4[8:1]/2>5[8:1],1,{4}8/2p6[8:1],{8}2/7-4[8:1],8-3[8:1],
7<5[8:1],8>2[8:1],7pp4b[16:5],8,7,{16}3x,3x,,5x,{8}5x,
{16}3-8[8:1],4,,4,{8}3,4x,{16}6-1[8:1],5,,5,{8}6,5x,
2-6[16:1],2,{16}7-3[16:1],,,1-5[16:1],,,{8}8,{4}8,
{8}6/4,6/4,{16}3,7,3,7,2-5[16:1],,,2/6-1[16:1],,,{8}6/3h[4:1],
,8,{4}7<2[4:1],{8},,,8,
7b/1b-5[8:1],2,1/6v3[8:1],7,6/1>4[8:1],2,1-5[8:1]/7<4[8:1],8,
{4}7/1,{8}8-3[8:1],8,{4}8-5[8:1]*<5[8:1],8,
{8}4-2[8:1],3,6-8[8:1],7,1-5[8:1],2,7-3[8:1],6,
2-5[8:1],2<4[16:5],,,,8b,,1,
2/8-4[8:1],7,8/3v6[8:1],2,3/7<4[8:1],8,7-3[8:1]/2-4[8:1],1,
{4}2/7,{8}1-6[8:1]/8-6[8:1],2,{4}1b-3[8:1]/8b-3[8:1],8bz4[8:1]/1bs5[8:1],
8b/1b,{64}D6/D4,A6/A3,D7/D3,A7/A2,D8/D2,A8/A1,,,,,,,,,,,{8}7-3[8:1],2<5[4:1],7,2,
,8,{4}8h[8:3],{8},1,7/2,6/3,
{4}5x/E4,{8}5/B3,E4,{4}4/E6,{8}4/B6,E6,
5/B3,E4,5/B3,E4,{4}4/E6,{8}E8/B7/B8,E8/B7/B8,
6b/1b-5[8:1],2,1/7q3[8:1],6,7/2v5[8:1],1,2/6<4[8:3],6,
{4}6,5,{8}3-8[8:1],5-1[8:1],3,5,
2bq6[8:1],3,2/7-3[8:1],8-4[8:1],7x>5b[16:7],8x,{4}7x,
{8},,,7,8-5[8:1],1-4[8:1],8,1,
7p3[8:1],8,7/1-5[8:1],1<6[8:1],1x>6b[4:1],1x,1x,{24}8bx,E8,E7,
E6,E5,E4,E3,E2,E1,{16}D8,D7,D6,D5,{8}D4,1,1w5[8:1],1,
{1}1b,
E
