&title=ノリノリばんきちゃん
&artist=ぱらどっと
&first=0
&des_5=师傅,这里掉头
&lv_5=12+
&des=师傅,这里掉头
&clock_count=4
&inote_5=(128){1},
{8}6h[8:4],,4,,3h[8:4],,5,,7h[8:6],,5,,
{16}A1h[4:1]/B1h[4:1],,,,{64},C,B5,A5,,,,,,,,,,,,,
{8}4h[8:4],,7,,5h[8:4],,2,,3h[8:6],,7,,
{16}A1h[4:1]/B1h[4:1],,,,{64},C,B5,A5,,,,,,,,,,,,,
{8}6h[8:4],,5,4,3h[8:4],,5,6,7h[8:6],,4,2,
{16}A1h[4:1]/B1h[4:1],,,,{64},C,B5,A5,,,,,,,,,,,,,
{8}4h[8:4],,7,6,5h[8:4],,2,3,4h[8:6],6,7,8,
{16}A1h[4:1]/B1h[4:1],,,,{64},C,B5,A5,,,,,,,,,,,,,
{16}5x/4x-2[12:1],,,,5,,6,,7x/2x-5[8:1],,,,6,,7,,8x/5x-1[8:1],,,,7,,6,,
{16}5x/A1h[4:1]/B1h[4:1],,,,{64},C,B5,A5,,,,,,,,,,,,,
{16}4x/6x-8[12:1],,,,4,,3,,2x/8x-5[8:1],,,,3,,2,,1x/5x-1[8:1],,,,2,,3,,
{16}4x/A1h[4:1]/B1h[4:1],,,,{64},C,B5,A5,,,,,,,,,,,,,
{16}4x/3xv8[8:1],,,,6,,5,,4x/1xq5[8:1],,,,6,,7,,8x/5xp8[8:1],,,,7,,6,,
{16}5x/A1h[4:1]/B1h[4:1],,,,{64},C,B5,A5,,,,,,,,,,,,,
{16}4x/6xv8[8:1],,,,3,,4,,5x/1x^6[8:1],,,,3,,2,,1x/5xq2[8:1],,2,,3,,3,,
{16}4x/A1h[4:1]/B1h[4:1],,4,,{64}3b,C,B5,A5,,,,,,,,,,,,,
{8}1x-4[8:1]/5x-8[8:1],,,,A1h[4:1]/E1h[4:1]/5x-2[16:1],,{64},B7,A6,,,,,,,,,,,,,,
{8}1x-4[8:1]/5x-8[8:1],,,,A1h[4:1]/E1h[4:1]/5x-2[16:1],,{64},B7,A6,,,,,,,,,,,,,,
{8}1xbv4[8:1]/5xbv8[8:1],,,,A1h[4:1]/B1h[4:1]/5xv2[16:1],,{64},C,B6,A6,,,,,,,,,,,,,
{8}1xv4[8:1]/5xv8[8:1],,,,A1h[4:1]/B1h[4:1]/5xv2[16:1],,{64},C,B6,A6,,,,,,,,,,,,,
||{8}1xq5[8:1]/5xq1[8:1],,,,A1h[4:1]/E1h[4:1]/5xp1[16:1],,{48},B7,B6,A5,,,,,,,,,
||{8}1x>5[8:1]/5x<1[8:1],,,,A1h[4:1]/D1h[4:1]/5x>1[16:1],,{48},D8,D7,D6,,,,,,,,,
{8}3x-1[12:1]/8x-4[8:1],,,,A1h[4:1]/B1h[4:1]/6x-8[16:1],,{64},C,B5,A5,,,,,,,,,,,,,
{8}4x-2[12:1]/8x-4[8:1],,,,A1h[4:1]/B1h[4:1]/5x-7[16:1],,{64},C,B5,A5,,,,,,,,,,,,,
||{8}8x-4[8:1]/4xv1[8:1],,,,A1h[4:1]/5xv8[16:1],,{48},B1,C,B5,,,,,,,,,
{8}8xbv5[8:1]/5xb-2[8:1],,,,A1h[4:1]/B1h[4:1]/4x-7[16:1],,{64},C,B4,A4,,,,,,,,,,,,,
{8}8xv5[8:1]/5xq1[8:1],,,,A1h[4:1]/B1h[4:1]/4xp8[16:1],,{64},C,B4,A4,,,,,,,,,,,,,
||{8}8xv6[8:1]/5xp1[8:1],,,,A1h[4:1]/4xq8[16:1],,{48},B1,C,B3,,,,,,,,,
{8}4x,3,2,8,7/A1h[4:1]/B1h[4:1],6,{64}8,C,B5,A5,,,,,{8}7,
{8}6,8,7,6,8/A1h[4:1]/B1h[4:1],7,{64}6,C,B5,A5,,,,,{8}7,
{8}6b,5,2,3,4/A1h[4:1]/B1h[4:1],2,{64}3,C,B5,A5,,,,,{8}4,
{8}2,3,4,2,3/A1h[4:1]/B1h[4:1],4,{64}2,C,B5,A5,,,,,{8}3,
{16}8-4[8:1]/4xh[8:1],,,,2h[8:1],,,,5xh[8:1]/A1h[4:1]/B1h[4:1],,,6h[8:1],{64},C,B5,A5,,,,,{16}7,,
{16}8-4[8:1]/4xh[8:1],,,,2h[8:1],,,,5xh[8:1]/A1h[4:1]/B1h[4:1],,,6h[8:1],{64},C,B5,A5,,,,,{16}7,,
{8}4bx/8bx,4/8,3/7,3/7,A1h[4:1]/B1h[4:1]/6x,6,{64}6,C,B5,A5,,,,,{16}6,,
{8}A1h[4:1]/B1h[4:1]/3xh[16:1],3h[16:1],{64}3h[16:1],C,B5,A5,,,,,{16}3h[16:1],,
{8}A1hf[4:1]/B1h[4:1]/7xh[16:1],7h[16:1],{64}8b,C,B5,A5,,,,,{16},,
{8}7^5[12:1]/4^2[12:1],8/5,4xq8[8:1],,A1h[4:1]/B1h[4:1],,{64},C,B5,A5,,,,,{16},,
{8}7^5[12:1]/4^2[12:1],8/5,4xq8[8:1],,A1h[4:1]/B1h[4:1],,{64},C,B5,A5,,,,,{16},,
||{8}8b-5[8:1]*-3[8:1],,{16}8x-4[8:1],,,,A1h[4:1]/B1h[4:1]/8x-6b[12:1],,,,{64}8x-4[8:1],C,B5,A5,,,,,{16},,
||{16}A1h[4:1]/B1h[4:1]/8x-6b[12:1],,,,{64}8x-4[8:1],C,B5,A5,,,,,{16},,
||{16}A1h[4:1]/B1h[4:1]/8x-6b[12:1],,,,{64}8x,C,B5,A5,,,,,{16},,
{8}7b-4[8:1]*-3[8:1]/4b,,{16}7,,,,A1h[4:1]/B1h[4:1]/8x-6b[12:1],,,,{64}8x,C,B5,A5,,,,,{16},,
{16}A1h[4:1]/B1h[4:1]/2x-4b[12:1],,,,{64}2x,C,B5,A5,,,,,{16},,
{16}A1h[4:1]/B1h[4:1]/8x-4b[8:1],,,,{64}8x,C,B5,A5,,,,,{16},,
{8}3-5[12:1]/6^1[8:1],2/5,6xV42[8:1],,A1h[4:1]/B1h[4:1],,{64},C,B5,A5,,,,,{16},,
{8}3-5[12:1]/6^1[8:1],2/5,6xV42[8:1],,A1h[4:1]/B1h[4:1],,{64},C,B5,A5,,,,,{16},,
||{8}2b-8[12:1]*-6[8:1],,2-4[12:1],,A1h[4:1]/B1h[4:1]/2x-6b[8:1],,{64},C,B5,A5,,,,,{16},,
{8}2bv8[8:1]*v4[8:1]/6b,,2,,A1h[4:1]/B1h[4:1]/2x-6b[8:1],,{64}2x,C,B5,A5,,,,,{16},,
{16}A1h[4:1]/B1h[4:1]/7xV53b[8:1],,,,{64}7x,C,B5,A5,,,,,{16},,
{16}A1h[4:1]/B1h[4:1]/4x-8b[8:1],,,,{64}4x,C,B5,A5,,,,,{16},,
{8}7-5[12:1]/4-2[12:1],8/5,4xV68[8:1],,A1h[4:1]/B1h[4:1],,{64},C,B5,A5,,,,,{16},,
{8}7-5[12:1]/4-2[12:1],8/5,4xV68[8:1],,A1h[4:1]/B1h[4:1],,{64},C,B5,A5,,,,,{16},,
{8}7b-4[8:1]*-3[8:1]/3b,,{16}7,,,,A1h[4:1]/B1h[4:1]/5x,,,,{64}7x-5b[12:1],C,B5,A5,,,,,{16}8,,
{8}7b-3b[8:1]/A1h[4:1]/B1h[4:1],,{64}7b,C,B5,A5,,,,,{16},,
{8}8b-4b[8:1]/A1h[4:1]/B1h[4:1],7b,{64}8b,C,B5,A5,,,,,{16},,
{16}A1h[4:1]/B1h[4:1]/6xh[8:1],,,7,{64}7,C,B5,A5,,,,,{16}8,,
{16}A1h[4:1]/B1h[4:1]/4xh[8:1],,,3,{64}3,C,B5,A5,,,,,{16}2,,
{16}A1h[4:1]/B1h[4:1]/6xh[8:1],,,7,{64}7,C,B5,A5,,,,,{16}8,,
{16}A1h[4:1]/B1h[4:1]/4xh[8:1],,,3,{64}3,C,B5,A5,,,,,{16}2,,
{16}A1h[4:1]/B1h[4:1]/6b,6,,7,{64}7,C,B5,A5,,,,,{16}8,,
{16}A1h[4:1]/B1h[4:1]/4b,4,,3,{64}3,C,B5,A5,,,,,{16}2,,
{64}A1h[64:1]/E1h[64:1]/E2h[64:1],B3/B7,A4/A6,,,,,,,,,,,,,,
{64}A1h[64:1]/E1h[64:1]/E2h[64:1],E8/E3/A7/A3,A5/E6/E5/E7/E4,,,,,,,,,,,,,,
{64}A1h[64:1]/E1h[64:1]/E2h[64:1],B3/B7/C,A4/A6/E6/E5/A5/D6/D5,,,,,,,,,,,,,,
{64}A1hf[64:1]/E1h[64:1]/E2h[64:1]/A8h[64:1]/A2h[64:1]/D1h[64:1]/D2h[64:1],A7/B7/C/B3/A3,A6/E6/E5/A4/A5/D6/D5,,,,,,,,,,,,,,
{8}7x-4[8:1],,4-8[8:1],,A1h[4:1]/B1h[4:1],,{64},C,B5,A5,,,,,,,,,,,,,
{8}3-7[8:1],,7-4[8:1],,A1h[4:1]/B1h[4:1],,{64},C,B5,A5,,,,,,,,,,,,,
{8}8^5[8:1],,5V74[16:3],,A1h[4:1]/B1h[4:1],,{64},C,B5,A5,,,,,,,,,,,,,
||{8}2V47[16:3],6,7V52[32:5],8,A1h[4:1],,{48}3x>6b[8:15],B1,C,B5,,,,,,,,,
{8}2V47[16:3],6,7V52[32:5],8,A1h[4:1]/B1h[4:1],,{64}3x>6b[8:15],C,B5,A5,,,,,,,,,,,,,
{8},,,,A1h[4:1]/B1h[4:1],,{64},C,B5,A5,,,,,,,,,,,,,
{8},,,,A1h[4:1]/B1h[4:1],,{64},C,B5,A5,,,,,,,,,,,,,
{8}7h[8:6],,,,A1h[4:1]/B1h[4:1],,{64},C,B5,A5,,,,,,,,,,,,,
||{8}3/5x,6,3/7x,8,A1hf[4:1]/3,,{48}3b>3[2:3]*<3[2:3],B1,C,B5,,,,,,,,,
{8}3/5x,6,3/7x,8,A1h[4:1]/B1h[4:1]/3,,{64}3b>3b[2:3]*<3b[2:3],C,B5,A5,,,,,,,,,,,,,
E
