&title=はやくにげなきゃ
&artist=SatoChinamini
&first=0.034
&des=傻藤
&lv_5=13+
&des_5=傻藤
&inote_5=
(172){4},{1},,,{4},,,{8},3xV14-8-5-7[2:3],
,,,,,,,,,,,,,,,6x-8-5-1-4-2[2:3],
,,,,,,,,,,,,,,,2x-4-1-5-8-6[2:3],
,,,,,,,,,,,,,,,7x-5-8-4-1-3[2:3],
,,,,,,,,,,,7x,
7x,7x,
{4}6-8[8:1],3-1[8:1],6-8[8:1],3-1[8:1],
6-8[8:1],3-1[8:1],{8}6,6,{4}6,
5-8[8:1],4-1[8:1],5-8[8:1],4-1[8:1],
5-8[8:1],4-1[8:1],{8}5,5,{4}5,
{8},3-1[8:1]/4-1[8:1],{4}2/5,{8},6-8[8:1]/5-8[8:1],{4}7/4,
{8}E1,E2,E3,E4,,6,{4}6,
{8},3>8[8:1]/5p8[8:1],{4}3/5,{8},6<1[8:1]/4q1[8:1],{4}6/4,
{8}E2,E3,E4,E5,{2}E6h[4:7],
{4}1-3[8:1],1-7[8:1],1>4[8:1],1<6[8:1],
1-3<4[8:1],1,{8}7/8,6/1,5/2,B4/B3/E4h[8:15],
{4}8-6>5[8:1],8-2>3[8:1],8-5[8:1],8-3[8:1],
8<6[8:1],8>2[8:1],8-6[8:1],8,
{8},3-8[8:1]/4-1[8:1],{4}3/4,{8},6-1[8:1]/5-8[8:1],{4}6/5,
{8}A2,A3,A4,A5,7x,7x,7x,7x,
B2/B3/E3/A2/D3/A3/E2/E4,{16},,,,,,,,E2,B2,B3,E4,{1},{4},,{8},{16}E8,
,,,,E6,,,,,,E7,
,,{8}E7,{4}2b/1b,{16}4,6,4,6,
{8}4,4,{16}7,5,7,5,{8}7,7,{16}3,5,3,5,
3,2,1,8,3,4,5,6,{8}8x,8x,{16}7x,6,7,6,
{8}4x,4x,{16}2x,3,2,3,1,8,1,8,2V47-5[8:3],7,2,7,
,,,,,,,,{4}7b/8b,{16}5,3,5,3,
{8}5,5,{16}2,4,2,4,{8}2,2,{16}6,4,6,4,
6,7,8,1,6,5,4,3,{8}1x,1x,{16}2x,3,2,3,
{8}5x,5x,{16}7x,6,7,6,E2,,,,,E4,,,,,,E3,
,,{8}E3,3>8[8:1],3,4v7[8:1],4,
3>8[8:1],3,4v7[8:1],4,,A3,A2,A1,
A8/A7,A6,A5,A4,6<1[8:1],6,5v2[8:1],5,
6<1[8:1],6,5v2[8:1],5,6,7,6/5,4,
3/4,2,3/4,5,3>8[8:1],4v7[8:1],3,4,
3>8[8:1],4v7[8:1],3,4,,A6,A7,A8,
A1/A2,A3,A4,A5,6<1[8:1],5v2[8:1],6,5,
6<1[8:1],5v2[8:1],6,5,{16}E8,,,,,E6,,,,,,E7,
,,{8}E7,{16}3,4,3,4,{8}3,3,
{16}6,5,6,5,{8}6,6,{16}4,5,3,6,4,5,3,6,
2,3,4,5,2,3,4,5,{8}7-3[8:1],7,1-4[8:1],1,
5-2[8:1],5,7-3[8:1],7,8-4[8:1],8,1-5[8:1],1,
2-6[8:1],2,{4}3,{16}7,8,7,8,{8}7,7,
{16}2,1,2,1,{8}2,2,{16}8,1,7,2,8,1,7,2,
6,7,8,1,6,7,8,1,{8}3-7[8:1],3,5-8[8:1],5,
1-6[8:1],1,3-7[8:1],3,4-8[8:1],4,5-1[8:1],5,
6-2[8:1],6,{4}7,4h[8:1]/E6,4h[8:1]/B6,
4h[8:1]/B7,4h[8:1]/E8,5h[8:1]/E4,5h[8:1]/B3,
5h[8:1]/B2,5h[8:1]/E2,4h[8:1]/E6,4h[8:1]/B6,
4h[8:1]/B7,4h[8:1]/E8,5h[8:1]/E4,5h[8:1]/B3,
5h[8:1]/B2,5h[8:1]/E2,4h[8:1]/E5,3h[8:1]/E6,
4h[8:1]/E7,3h[8:1]/E8,5h[8:1]/E5,6h[8:1]/E4,
5h[8:1]/E3,6h[8:1]/E2,4h[8:1]/E5,2h[8:1]/E6,
3h[8:1]/E7,1h[8:1]/E8,{2}5qq6[8:5],
{16},,,,,,,,4,5,4,5,4,5,4,5,
3,6,3,6,3,6,3,6,2,7,2,7,2,7,2,7,
1,8,1,8,1,8,1,8,3-1[8:1],4,3,4,{4}3,
{16}6-8[8:1],5,6,5,{4}6,{8}7bx/8bx,8b/7b,1bh[16:1]/6bh[16:1],8b/7b,
8b/7b,8b/7b,1bh[16:1]/5bh[16:1],7b/8b,,3qq1[8:1]/4q8[8:1],2/5,3x/4x,
,6pp8[8:1]/5p1[8:1],7/4,6x/5x,A7,A6,A5,A4,
A2/A3,A1,A8,A7,,4p7[8:1]/3-1<8[8:1],4/3,4x/3x,
,5q2[8:1]/6-8>1[8:1],5/6,5x/6x,A3,A4,A5,6x<6-8-2-4-6-1-4-6[8:19],
{1},,,,{4},,A6,
E8,
B5,B1,E4,A2,
C,C,A6,E8,
B5,B1,{16}E8,,,,,E6,,,,,,E7,
,,{8}E7,3-1[8:1],3,5-7[8:1],5,
3-1[8:1],3,5-7[8:1],5,,2,2,2,
1/8,7,6,5,,3/4,2,1,
7/8,6,5,5,3/4,1,4/3,7,
4/3,1,4/3,7,6-8[8:1],6,4-2[8:1],4,
6-8[8:1],6,4-2[8:1],4,,7,7,7,
8/1,2,3,4,,6/5,7,8,
2/1,3,4,4,6/5,8,5/6,2,
5b/6b,6b/5b,5b/6b,6b/5b,{4}3-8b[8:1],3b/6-2b[8:1],
6b/7-4b[8:1],7b/5-1b[8:1],5b/2-6b[8:1],2b/8-5-3V58b[2:1],
8b,8b,2-6b[8:1],2b/5-8b[8:1],
5b/1-4b[8:1],1b/7-3b[8:1],7b-5b[8:1],7b-1b[8:1],
7b-3b[8:1],7b,4b-7b[8:1],6b-1b[8:1],
8b-3b[8:1],2b-5b[8:1],4b-7b[8:1],6b-1b[8:1],
8b-3b[8:1],2b-5b[8:1],{8}4,4,6,6,
{32}8,1,2,3,4,5,6,7,8,1,2,3,4,5,6,7,{24}1bx/8h[12:11],,,,,,,1bx,,,,,,,,,{6}1bx,
{12},1bx,{8}3x/4x,2,4/3,5,
4/3,1,4/3,6,4/3,8,4/3,7,
4/3,5/4,6/5,5/4,6/5,7,5/6,4,
5/6,8,5/6,3,5/6,1,5/6,2,
5/6,4/5,3/4,4/5,4/3-1b[8:1],2,4/3,5,
4/3-8b[8:1],1,4/3,6,4/3-1b[8:1],8,4/3,7,
4/3,5/4,6/5,5/4,5/6-8b[8:1],7,5/6,4,
5/6-1b[8:1],8,5/6,3,5/6-8b[8:1],1,5/6,2,
5/6,4/5,3/4,4/5,{32}A2,B2,C,B6,{8}A6,,,,,,,,,,,,,,,2,
4,2,8/1,
7,5,7,8/1,3,2/4,{4}8b/1b,
{8}6,7/5,{4}1b/8b,4-7[4:1],7-2[4:1],
2-5[4:1],5-8[4:1],8-3[4:1],3-6[4:1],
6,1,{8}E2,E3,{4}E4,
{8}E8,E7,{4}E6,1-6[8:1]/8-6[8:1],1-3[8:1]/8-3[8:1],
1-6>1[4:7]/8-6>1[4:7],1/8,,,,,,,,7x-2[8:25],
E
