&title=Judgement
&artist=Tatsunoshin
&first=0.134
&des=slug
&lv_5=14+
&inote_5=(200)
,,,,
{8}
5hx[4:1],4,3,6hx[4:1],5,4,5hx[4:1],4,3,6hx[4:1],5,4,3,2,1,8,7/3h[4:1],4,5,4h[4:1],5,6,3h[4:1],4,5,4h[4:1],5,6,7,8,1,2,3h[4:1]/5,5,5,4h[4:1]/6,6,6,6h[4:1]/4,4,4,5h[4:1]/3,3,3,6,3,5,4,2h[4:1]/8,8,8,1h[4:1]/7,7,7,7h[4:1]/1,1,1,8h[4:1]/2,2,2,7,2,8-4[8:1]b,1>1[4:2],Ch[16:1],,,,,,,,6/3,7/8,,7/2,3/4,,3/6,2/1,,2/7,6x<1-5[4:1]/5x>2-6[4:1],,,,,,7/4,2/1,,2/5,7/8,,1/2,7/4,,8-2[8:1]/7-5[8:1],2x-7-3[4:1]/5x-8-4[4:1],,,,,,
8qq5[2:1]/1,,2,,3,,4,,3-8-2[2:1]/4,,4,,5,5,6,,7-5-2[2:1]/8,,1,,3-7[8:1],,,,
{12}
2x/6x,,1x/5x,,8x/4x,,2x-7[8:1]/6x-3[8:1],,2x/6x,,,,
{8}
8h[8:1],5,1/5,3,3h[8:1],4,5/4,6,
6h[8:1],5,4/5,3,3h[8:1],4,5/4,6,
7h[8:1],8,1/8,2,2h[8:1],1,8/1,7,
7h[8:1],8,1/8,2,2h[8:1],1,8/1,7,8/1,2,8/1,7,8/1,2,8/1,7,8/2,3,1/7,6,1/5,1/5,8/4,8/4,
{16}
7,3,7,3,7,3,7,3,7,3,7,3,7,3,7,3z7[2:1],7p3p7[2:1]b,,,,,,,,,,,,,,,,
{8}
3b,,3,7x,3/8,7x,3,7x,3,7x,3,7x,3/8,7x,7x/3bh[8:1],,
3,,3,7x,3/8,7x,3,7x,3,7x,3,7x,3/8xw4[8:1]b,7,8x,,1-5[8:1]/7,,8/1,,8-4[8:1]/7,,1/8,,1-5[8:1]/7,,8/1,,8-4[8:1]/7,,1/8,1,
1-3-5[8:1]b/7,,8/1,,8-6-4[8:1]b/7,,1/8,,1-3-5[8:1]b/7,,8/1,,8-6-4[8:1]b/7,,1/8,,
1>4[8:1]/8,,8<5[8:1]/1,,1-5[8:1]/8,,8-4[8:1]/1,,8/2-6[8:1],,2/5-1[8:1],,5/3-5[8:1],,3x-7[4:1],,7x-1[4:1],,1x-3[4:1],,3xp5[4:1],,5x-2-4<5[4:3]*-8-6>5[4:3],,,,,,,,,,
1bxh[6:1]/2-5[8:1],,1hbx[6:1]/2b,,8bxh[6:1]/7-4[8:1],,8bhx[6:1]/7b,,1bxh[6:1]/2-5[8:1],,1hbx[6:1]/2b,,8bxh[6:1]/7,,8bhx[6:1]/7b-4[8:1],7b,7b,,
7bxh[6:1]/8-3[8:1],,7hbx[6:1]/8b,,6bxh[6:1]/5-2[8:1],,6bhx[6:1]/5b,,7bxh[6:1]/8-3[8:1],,7hbx[6:1]/8b,,6bxh[6:1]/5,5b,5,,5h[6:1],,5h[6:1],,5h[6:1]/6,7,8h[6:1],,8h[6:1],,8h[6:1],,8h[6:1]/1,2,3bh[16:1],3bhx[16:1],3bhx[16:1],3bhx[16:1],
{16}
3,4,2,5,3-1[8:1],4,1-5-7[4:1],6,,,,,,,,,8z4[8:1]b,,,,,,,,1,,6,4,5,3,6,4,5,3,5,3,6,4,5,3,7,4,6,2,8,3,7,,1,8,,1,6,5,6,,3,4,3,,2/4,,1,,5/7,,8,,4/2,,1,,3,4,3,4,2,4,3,4,2,1,8,7,6,5,4,3,2/5,,6,,4/5,,7,,4,5,3,4,2,6,4,,
6/5,,3,,5/4,,2,,5x,4,5x,4,5x,3,5x,,1b-5[8:1]b,,1b,,,,8bz4[8:1]b,,8b,,,,3bw7[8:1],,3b,,,,,,,,,,5/1,4,3,2,1,8,7,6,5/2,,1,,8/1,,6,,1,7,3,8,1,7,1,,
8,,1/2,,3,,8,1,8,1,8,2,8,2,8,,2>5[8:1]/6,,1,,2/5,,6-8[8:1],,8-4[8:1],,6,,3v1[8:1],,2,,3,,,,7/3,,7/3,,8,4,8,4,1<7[8:1],5,1,5,,,,,
5/2,,3,4,3,,2,,8>2[8:1]/2,,6,,4bh[8:1]/8b,,,,
4/7,,6,5,6,,7,,1<7[8:1]/7,,3,,{12}5bh[2:1]/1b,,A6,,B5,,A4,,A3,,A2,,A1,,,,,,,,,
{8}
8x-2-4-8[1:3]*-6-4z8[1:3],,8x,,,,,,,,,,,,,,,,,,,,,,,,,,,,,,
1x<5z1[1:3]*>5s1[1:3],,1x,,,,,,,,,,,,,,,,,,,,,,,,,,,,,,
5x<6-8>1p5[1:3],,5x,,,,C,,,,A3,,,,A1,,,,E5,,E4,,E3,,E2,,C,,,,,,
1-5-1[1:3],,1,,,,B8,,,,B6,,,,B4,,,,B2,,C,,B6,,A6,,Ch[4:3],,,,,,,,
3bhx[4:1]/A6,B6,7x,4bhx[4:1]/E6,B5,6x,3bhx[4:1]/E8,B8,8x,4bhx[4:1]/E6,B2,8x,
{16}
4x,6,3x,5,1x,4,2x,5,
{8}
3bhx[4:1]/A6,B6,7x,4bhx[4:1]/E6,B5,6x,3bhx[4:1]/E8,B8,8x,4bhx[4:1]/E6,B2,8x,
{16}
5,3x,6,4x,7,5x,8,4x,
7-4[8:1],,3,,7,,2-5[8:1],,1,,2,,
7-5>4[8:1],,8,,7,,2-4<5[8:1],,1,,2,,8,1,2,3,4,5,6,7,8/4-8[8:1],,4,,4,,7-3[8:1],,7,,7,,1-5[8:1],,1,,1,,3,,3,,3,,1,2,3,4/5,6,7,8,,1,1,1,1,1,1,1,1,1,2,8,2,8,2,8,2,8,2,8,2,8,3,7,4,6,5x,5x,5x,5x,5x,5x,5x,5x,4,6,2,8,4,6,3,7,4,6,2,8,4,6,3z7[2:1],7p3p7[2:1]b,,,,,,,,,,,,,,,,
2b/7h[8:1],,3,5,2,5,3,,7,4,6,4,7,,3,,2h[8:1]/5,,6,,7h[8:1]/4,,5,,4,5,3,,5,4,6,,
7b/2h[8:1],,6,4,7,4,6,,2,5,3,5,2,,6,,7h[8:1]/4,,3,,2h[8:1]/5,,4,,3,5,4,,6,4,5,,
5hx[8:1]/2,,3,4,3,4,3,4,2,4,3,,6/2,,1,,7h[8:1]/4,,3,,2h[8:1]/5,,6,,2/5,,1,,7/4,,8,,2/5,,1,,7/4q8[1:1]*p8[1:1],,8,,,,,,,,,,,,,,,,,,,,,,1x,,,,
3b/6h[8:1],,2,8,3,8,2,,6,1,7,1,6,,2,,3h[8:1]/8,,7,,6h[8:1]/1,,8,,1,8,2,,8,1,7,,3>1[8:1],,4,,3/6<8[8:1],,5,,6/2,,,
{12}
1,,7b,,1b,,3b/8b,,4b/6b,,2b/5b,,8b/6b,,8b/6b,
{16}
,2/5,,3,4,3,,2/5,,7/4,,6,5,6,,6,,
6/1,,7,8,7,,6/1,,3/8,,2,1,2,,2,,3/8,
2,1,2,1,2,1,3,8,3,8,5,6-8[8:1],3,8-5-1[4:1]*-5-2[4:1],5,6,,,,,,,,,,,,C,,,,
{32}2,3,4,,7,6,5,,1,2,3,,,,,,1x,B1,C,B5,A5,,8x,B8,C,B4,A4,,2x,,,7x,B7,C,B3,A3,,1x,B1,C,B5,A5,,8x,B8,C,B4,A4,2x,B2,C,B6,A6,,,,7x-3[8:1]b,,,,,,,,,,,,,,,,,,,,,,,,1x
,2,3,,,,7x,6,5,,,,2x,3,4,,,8,7,6,,,,3qq8[2:1]*pp8[2:1],4,5,,,,,,,,,,,,,,,,,,,,,,,,,,,,,,,,,,,,,,,2,,,,,,2,,,,,,2,,,7,,,,,,7,,,,,,7,,,3,,,,,,3,,,,,,3,,,,,,
{16}
3/6,,2,,3/6,,1,,3/6,,2,,3/6,,1h[2:1],,Ch[1:1],,,,,,,,,,,,,,,,2z6s2>2[1:2]b,,,,,,,,,,,,,,,,,,,,,,,,,,,,,,,,5,,5,,5,,5,,5,,5,,5-1[8:1]b,,5,,5,,,,1x-3[8:1]*-7[8:1],,,,1w5[8:1],,,,1qq1-5[4:7],,,,1h[1:1],,,,,,,,,,,,,,,,,,,,,,,,,,,,,,,,
2b/7h[8:1],,3,5,2,5,3,,7,4,6,4,7,,3,,2h[8:1]/5,,6,,7h[8:1]/4,,5,,4,5,3,,5,4,6,,
7b/2h[8:1],,6,,7/2,,6,,7/3,,6,,7/4,,6,,7/5,,4,6,4,,7,5,7,,8,3,8,,2,8,3,1,2,8,1,7,,2/8,,1,7,1,6,1,7,1,6,5,4,3,2,1,8,7,6,5,4,3,2,1,8,7,6b/1b-3[8:1],,,8,1,,6,,
5b-7[8:1],,,4,5,,2,,
8b/3h[8:1],,7,5,8,5,7,,3,6,4,6,3,,7,,8h[8:1]/5,,4,,3h[8:1]/6,,5,,6,5,7,,5,6,4,,
{12}
1,,7b,,1b,,3b/8b,,4b/6b,,2b/5b,,
{16}
6/1,,7,8,7,,6/1,,3/8,,2,1,2,,2,,3/8,,2/5,,3,4,3,,2/5,,7/4,,6,5,6,,6,,
6/1,,7,8,7,,6/1,,6/1,,2/5,,1,2,3,4,5,6,7,8,{24}1,2,3,4,5,6,7,8,{32}1,2,3,4,5,6,7,8,1,
{8}5hx[4:1],4,3,6hx[4:1],5,4,5hx[4:1],4,3,6hx[4:1],5,4,3,2,1,8,7/3h[4:1],4,5,4h[4:1],5,6,3h[4:1],4,5,4h[4:1],5,6,7,8,1,2,
