&title=ガ
&artist=鬱P
&first=0.7
&des=tigus(as a moth)
&lv_5=14.3
&inote_4=(180){4}3-8>2[24:7]/4-7[6:1],3/4<6[8:1],4>2[8:1],4-7[6:1],4-1[6:1],4z8[4:1],4/8-3[8:1],,1-6<8[24:7],1,4-7<5[24:7],4,8-3>1[24:7],8,5-2[6:1]b,5,
{4}6-1<7[24:7]/5-2[6:1],6/5>3[8:1],5<7[8:1],5-2[6:1],5-8[6:1],5s1[4:1],5/1-6[8:1],,8-3>1[24:7],8,5-2>4[24:7],5,1-6<8[24:7],1,4-7[6:1]b,4,3/7,
{4}1b-7[8:1],1-5[8:1]*-6[8:1],1-3[8:1],1-4[8:1]*-5[8:1],
{4}1-7[8:1],1<5[8:1]*>5[8:1],1,3b/7b,
{4}8b-2[8:1],8-3[8:1]*-4[8:1],8-6[8:1],8-4[8:1]*-5[8:1],
{4}8-2[8:1],8<4[8:1]*>4[8:1],8,2b/6b,
{4}1b-3[8:1]*-4[8:1],1-5[8:1],1-6[8:1]*-7[8:1],1-5[8:1],
{4}1-3[8:1]*-4[8:1],1w5[8:1],1,3b/7b,
{4}8b-5[8:1]*-6[8:1],8-4[8:1],8-2[8:1]*-3[8:1],8-4[8:1],
&inote_5=(180){4}8>3[8:1],7-3[8:1]/8,7/6,5h[4:1],{8}1>4[8:1],6,{4}1<6[8:1],1-5[8:1],1,
{4}1<6[8:1],2-6[8:1]/1,2/3,4h[4:1],{8}8<5[8:1],,{4}8>3[8:1],8-4[8:1],8,
{4}8-4>1[4:1],7/8,6<1[8:1],5/6,{8}4<7[8:1],2,{4}4>1[8:1],4-8[8:1],4,
{4}1-5<8[4:1],2/1,3>8[8:1],4/3,{8}5>2[8:1],,{4}5<8[8:1],5-1[8:1],5,3-8>2[4:1],
(180){4}3b/4-7[8:1],4-1>3[4:1],4,5-8[8:1],5-1[8:1]/3h[8:1],5-2[8:1]/3h[8:1],5<8[8:1]/4hb[8:1],5-2>4[4:1],
{4}5b/6-1[8:1],6-3<5[4:1],6,7-2[8:1],7-3[8:1]/1h[8:1],7-4[8:1]/2h[8:1],7>2[8:1]/3hb[8:1],7-4<6[4:1],
{4}7b/8-3[8:1],8-5<7[4:1],8,1-4[8:1],1-5[8:1]/2h[8:1],1-6[8:1]/2h[8:1],1>4[8:1]/3hb[8:1],1-6<8[4:1],
{4}1b/2-5[8:1],2-7>1[4:1],2,3-6[8:1],3-7[8:1]/4h[8:1],3-8[8:1]/5h[8:1],6hb[2:1],
(350){1},
(180){8}1-6[6:1],5h[16:1],1,,1-4[6:1],5h[16:1],1,,{16}1,8,7,6,{4}5<2[4:1],2<5[4:1],3h[4:1],,3h[4:1]/4h[2:1],,3-8>2[4:1],5,7h[4:1],5h[4:1],7,
{8}8-3[6:1],4h[16:1],8,,8-5[6:1],4h[16:1],8,,{16}8,1,2,3,{4}4>7[4:1],7>4[4:1],6h[4:1],,6h[4:1]/5h[2:1],,6-1<7[4:1],4,
{8}2h[4:1],4,4<6[8:1],4,{4}4-7[6:1],4-1[6:1],{8}2>4[8:1],2,2-5[8:1],,{4}2<7>2[3:1],2,
{8},7,7<5[8:1],7,{4}7-4[6:1],7-2[6:1],{8}3>1[8:1],3,{4}3-8[6:1],3<6>3[3:1],3,
{8},1,1<7[8:1],1,{4}1-6[6:1],1-4[6:1],{8}3>1[8:1],3,3-8[8:1],,{4}3<6>3[3:1],3,,
{8}5,6,7,8-6[12:1],1v4[8:1],8v5[8:1],1-3[12:1],8-3[8:1],1-6[8:1],8,{4}1>4[8:1],1-7<1[4:1],1,,E7f,
{4}2b<8[8:1]/3b-8[8:1],2-6[8:1]/3,2/7-4[8:1],6-1[8:1]/7>1[8:1],7/6,{32}1/8,2/7,3/6,4/5,,,,,{4}8b<6[8:1]/1b-6[8:1],8-4[8:1]/1,8/5-2[8:1],4-7[8:1]/5<7[8:1],5p1[8:1]/4>2[8:1],4/5,5<4[3:1]/4q5[3:1],4b/5b,,
{4}2b<8[8:1]/3b-8[8:1],2-6[8:1]/3,2/7-4[8:1],6-1[8:1]/7>1[8:1],7-4[8:1]/6>4[8:1],6b-2[8:1]/7b,5-1[8:1],4-8[8:1],3>3[2:1],,3<3[2:1],,,
(170){2}E3/E2/E1/E8/E7/B1/B2/B7/B8/Chf[65:19],
(180){4}3-8>2[24:7]/4-7[6:1],3/4<6[8:1],4>2[8:1],4-7[6:1],4-1[6:1],4z8[4:1],4/8-3[8:1],,1-6<8[24:7],1,4-7<5[24:7],4,8-3>1[24:7],8,5-2[6:1]b,5,
{4}6-1<7[24:7]/5v2[6:1],6/5>3[8:1],5<7[8:1],5-2[6:1],5-8[6:1],5s1[4:1],5/1-6[8:1],,8-3>1[24:7],8,5-2>4[24:7],5,1-6<8[24:7],1,4-7[8:1]b,4,3x/7x,
{4}1b-7[8:1],1-5[8:1]*-6[8:1],1-3[8:1],1-4[8:1]*-5[8:1],
{4}1-7[8:1],1<5[8:1]*>5[8:1],1,3b/7b,
{4}8b-2[8:1],8-3[8:1]*-4[8:1],8-6[8:1],8-4[8:1]*-5[8:1],
{4}8-2[8:1],8<4[8:1]*>4[8:1],8,2b/6b,
{4}1b-3[8:1]*-4[8:1],1-5[8:1],1-6[8:1]*-7[8:1],1-5[8:1],
{4}1-3[8:1]*-4[8:1],1w5[8:1],1,3b/7b,
{4}8b-5[8:1]*-6[8:1],8-4[8:1],8-2[8:1]*-3[8:1],8-4[8:1],8>3[8:1],8<5[8:1],8,
{24}8b,1,2,3,4,5,6,7,8,1,2,3,{8}4b-1-6[4:1],5,6-1-4[4:1],,{4}7h[8:1],7h[8:1],7h[8:1]/1>3-8[4:1],7h[8:1],
{8}6,5,4/3,2-6[8:1]b/5-1[8:1]b,,2b/5b,,,7/4,6-3<5[4:1]b/5-8<6[4:1]b,,5b/6b,,,1,2/8,3<6[8:1]/7>2[8:1],,3/7,,{4}1>5[4:1],5<1[4:1],1>5[4:1],5<1[4:1],,
{8},4,5,6,
{16}7b>1-6[4:1]b,8,7,8,{4}7,,{16}2b<8-3[4:1]b,1,2,1,{4}2b,,{8}5,4/6,{4}3h[4:5]/7h[2:1],,,,,6h[4:3],,,2h[4:5],,,,,
{8},B4,B5,B3,B6,B2,B7,B1,{4}8<6-1[8:3],4h[4:1],,3-8[4:1],8>2[6:1],,Ch[4:1],
{4},4>2-5[8:3],8h[4:1],,7-4[4:1],4<6[6:1],,Ch[4:1],
{4},5<7-4[8:3],1h[4:1],,2-5[4:1],5>3[6:1],,Ch[4:1],
{4}1>3-8[8:3],5h[4:1],,,6-1[4:1],1<7[6:1],Ch[4:1],,
{32}1xb/8xb,2b/7b,3b/6b,4b/5b,,,,,{16}3,4,3,4,3,4,3,4,1b/8b,,5,6,5,6,5,,1b/8b,,2,1,2,1,2,,{4}4bh[4:1]/5bh[8:3],,
{16}8,7,8,7,8,7,8,7,4b/5b,,3,4,3,4,3,,1b/8b,,5,6,5,6,5,,{8}1-6[8:1],2,1,8,1,1b/8b,
{16}4,5,4,5,4,5,4,5,4b,5,4,5,4b>5[8:5],5,4,5,{4}4,,,{16}1b,8,1,8,1,8,1,8,1,8,1,8,1b,8,1,8,1b,8,1,8,1>8[1:1],8,1,8,{1}1b,
{4},{32}1b/8b,2b/7b,3b/6b,4bh[32:29]/5bh[32:29],,,,,{1},{4}1b<6[8:1]/2b-6[8:1],2/1-5[8:1],1/7-3[8:1],7<4[8:1]/8-4[8:1],7/8,{8}7x,6,5,4,3h[8:1],,
{32}1b/8b,2b/7b,3b/6b,4b/5b,,,,,{4}8<5[4:1],5>2[4:1],2<7[4:1],7<4[4:1],4p5[4:1],,,{4}5b>2[8:1]/6b-2[8:1],6/5-1[8:1],5/3-7[8:1],3>8[8:1]/4-8[8:1],3/4,
{8}1,2,3,4,5-2>4[3:1]b,6,7,
E
