&title=[SD]ATLAS RUSH
&artist=Kanone
&first=-0.12
&des=䪀㜱斸
&lv_5=14+
&inote_5=(156)
{1},
{8}2b>1[4:6]/5h[8:2],,,6h[8:3],,,,6,7h[8:2],,,5h[8:2],,,4<1[4:6],,
2h[4:1],,,3h[8:3],,,,,4,,5s1[4:1],,,,7h[8:1],,
{4}2b/8b-4[4:1],1,2h[4:1],{16}5,3,5,3,
{4}6b/4b-8[4:1],5,7h[4:1],{16}2,8,2,8,
{8}17,7,75,7,47,36,25,14,
{16}2,4,3,5,4,6,5,7,{32}4b,3,2,1,8,7,6,5,4,3,2,1,8,7,6,5,{4}4b/8h[4:3],,,,
{24}2,4,3,4,,,{8}5-1[8:1],64,{4}5-2[8:1],5/8b,
{4}7-4[8:1],1-6[8:1],8-3[8:1],5-2[8:1],1-6[8:1],3-8[8:1],4-7[8:1],1h[4:1],
{16}7,8,7,8,6h[8:1],,5,5,8h[8:1],,1,1,7^4[8:1],8,6,,7/2-5[8:1],,1,,2/8,,1,,{16}8-4[8:1]/4,37,26,15,4/8b,,5,6,
{4}7/3-6[8:1],3/1-4[8:1],8-5[8:1]/1,8/7-2[8:1],7/4-1[8:1],4/5-8[8:1],{16}5/2h[16:3],,,1h[16:3],,,8h[16:2],,
7,5,6h[8:1],,4^1[8:1],5,,,8,,7h[8:1],,8^5[8:1],6,,4,,,3h[8:1],,1,2h[8:1],,,7-3[8:1],8,6,1,7b,,,,
{16}2,,3,,4h[8:1]/2,,3,4,,4,5,,56,,7,8,
{16}7,,6,,5h[8:1]/7,,6,5,,5,4,,43,,21,,
{16}38,,2,,1h[8:1]/7,,8,1,,7,8,,68,,7,,
{16}61,,7,,8h[8:1]/2,,1,8,,2,1h[8:1],,5,6,5,6,
{4}7b/4bq5[4:2],6,7,{16}6,4,6,4,
{4}5bp8[4:2],3,2,{16}3,1,3,1,
{16}2b,,8,1,8,1,8,1,{32}7,6,5,4,2,3,4,5,8,7,6,5,1,2,3,4,
{4}8p5[4:1],,{16}1h,2h,3h,4h,5,6,7,8,
{1}1b/5h[1:1],
{4}7s3[4:1],,4w8[8:1],4b,
{8}2b/6b,,,3,{16}3/4h[16:3],,,5h[16:3],,,6h[16:2],,7,,87,,{24}6,5,6,5,,,{4}7-4[8:1],{16},,3,2,1-4[8:1],,,,,,6,6,5h[16:3],,,4h[16:3],,,3h[16:2],,6,,6,,75,,6,,8-4[8:1]/4,,,,,,3,2,
{16}1b/5,,,,5,,8,,51,,,2,5,,3,,64,,6,,75,,7,,8-5[8:1]/6,,,,8,,3,2,1h[16:3],,,4h[16:3],,,3,3,7h[16:3],,,5h[16:3],,,8,8,{8}1,65,{24}8,7,6,51,,,{4}3-8[8:1]/7-4[8:1],3b/7b,
{16}5b-8[8:1]/2,,,,5/1-5[8:1],,2,,1/8-3[8:1],,,7,8^5[8:1],,6,,83,,4,,{24}
3,2,1,{8}8,8-3[8:1]/4-7[8:1],,8b/4b,,
{4}2-5[8:1]/6,{16}12,,8,8,4-7[8:1],,,3,4-8[8:1],,3,,4/2-5[8:1],,1,,2/7-4[8:1],,8,,7/1-5[8:1],,,,1b/8,,6,7,
{16}4b-1[8:1]/8,,,,4/8-4[8:1],,7,,8/1-6[8:1],,,2,1,,3,,{8}4-8[8:1],3,4/5-1[8:1],6,2-6[8:1]/5,,2b/8,{16}7,7,5h[16:6],,,8b,,,2b,,7b-4[16:1]/4b,,,3b-8[16:1],,,5b,,7,,53,,{24}81,2,3,48,,,{4}2-5[8:1]/6-1[8:1],2b/6b,
{8}3h[8:3]/7bqq4[4:3],,,,{16}3,,,2,,,1,,{4}8bpp3[4:3],{8},4,{16}5,,,6,,,7,6,{16}5<2[4:2],,,,35,,4,,5,,,4,,,3,3,1h[16:2],,,2,8h[16:2],1,,,7h[16:2]/5h[16:2],,,6h[16:2]/4h[16:2],,,5h[16:2]/3,,
{16}2,5,4,5,3,6,5,6,1,5,4,5,8,5,3,4,2,4,3,5,2,6,5,7,1,8,2,8,5,7,1,6,
2b,5,3,4,2b,6,4,5,8b,7,1b,6,2b,8,4b,5,
{4}6bV41[8:3]/3bV58[8:3],,,2b/7b,
{16}2-6[8:1],4,3,8,2,,1,1^4[8:1],5,7,,61,,,6,5,8h[8:1],,{24}2,3,4,{8}7-4[8:1],{24}3,2,1,{16}8-3[8:1]*-5[8:1]/7,,,,8b,,,,
{16}2-5[8:1],,3,4,2,,1,8,7-4[8:1],,6,1,7,,8,8,5h[8:1],,{24}1,2,3,{8}4/6-1[8:1],57,{16}62,3,4,5,{32}8,7,6,5,4,3,2,1,
{16}84,4,7-3[8:1],5,6,,7/1,,2-5[32:3],4,,2/1,,,8,8,7-4[8:1],,8,,7/2,,1,,5h[8:1],,{24}2,3,4,56,,,17,,,
{16}8-3[8:1],,4,4,8^5[8:1],,2,2,8-4[8:1],1,1,,85,,6,,
{32}7b/1b,6,5,4,3,2,1,8,7/2b,6,5,4,3,2,1,8,7v4[8:1]/3bv8[8:1],6,5,4,3,2,1,8,3b/7b,,,,,,,,
{16}2,4,1,8,5,6,2,4,3,7,5,6,2^5[8:1],8,1,7,
{8}2/8^5[8:1],1,82,1,{16}8h,1,2/6h,3,4/8h,7,6/2h,5,
{16}4,2,8,1,4,3,7,5,6,2,4,3,7^4[8:1],1,8,2,
{8}7/1^4[8:1],8,17,8,{16}1h,8,7/3h,6,5/1h,2,3/7h,4,
{16}5,7,1,8,5,6,2,4,3,7,5,6,2^5[8:1],8,1,7,
{8}2/8^5[8:1],1,82,1,{16}8h,1,2/6h,3,4/8h,7,6/2h,5,
{8}8b-4[8:1]/4,,8,{24}5,6,7,8b-4[8:1],,,,,,,,,3,2,1,
{16}8b/5b,,6,5b/7b,,4^1[8:1],8b,4,8b,7,6,5,{24}48,7,6,5,4,3,
{4}2b>1[4:9]/7bV14[4:6],,,,,,,,5s1[2:1],,,6<5[4:3],,,,2h[4:1],
{8}6h[8:1],,6h[8:1],4,6h[8:1],5,{16}6,5,7,5,46,,4,,73,,3,,82,,17,,1-5[8:1],8,2,7,18,,8,,74,,7,,36,,25,,4,3,5,2,
6,1,7,1,8,1,8,2,8,3,7,2,6-1[8:1],1,5,8,
{16}6b/1^4[8:1],,,,1/8,,6b,6b,5b-8[8:1],,,4b,5,,2b,2b,1b-5[8:1],,,8b,1,,7b,7b,4b^7[8:1],,,3b,4,,{24}3b,2,1,{16}8b-4[8:1],,,,87,,7,5,6b-1[16:1],,,6b/2-5[16:1],,,2b,,,,{24}5b/1b,48,37,{16}2/6-2[8:1],,,,6b,,,5b^8[16:1],,,{24}4b,3,2,
{16}1b-5[8:1],,,,17,,8,8,4^1[8:1],,,6,4,,5,5,{32}8,7,6,5,4,3,2,1,{16}8h[8:1],,6,6,{32}1b,2,3,,,,7b,6,5,,,,{32}2b,3,4,,6b,5,6,5,6,5,6,5,{16}47,,1,8,{32}8/1b,2,3,4,,,1b,2,3,4,,,1b,2,3,4,
6,5,6,,{16}74,,81,,{16}2,12,{32}7b,6,5,4,,,1b/7,2,3,4,,,{48}8bq4[4:2]/4bq8[4:2],73,26,15,,,8b/4b,
