&title=Like A Flower
&artist=IRENE
&first=0.425
&des=Hetatis
&lv_5=13
&des_5=Hetatis
&inote_5=
(123){4},{8},,,,,8h[8:1],
,,,2h[8:1],,,,5h[8:1],
{16},,,,,C,,,,,,,,,,,,,,,,,{8}8/7h[2:1],
1,2,3,4,
{16}4bh[4:1],,,6,{8}6,5/6h[2:1],4,3,2,1,
{16}1h[4:1],,,7,{8}7,8/6h[8:1],1,2/7h[8:1],3,4/8h[8:1],
{16}4h[4:1],,,6,{8}6,7,{4}2/8-5[8:1],8/1h[8:1],
7-5[8:1],7/8-4[8:1],{8}8/7-5[8:1],{16}E2,E3,{8}7/A3,8,
{16}4,,,3,,,3/8h[8:1],4,{8}5,5,{16}4/6h[8:1],3,{8}2-6[8:1],
2h[16:3],,,3/7h[8:1],2,1,{16}4/2h[8:1],5,{8}6-2[8:1],
6h[16:3],,,7,7/3,7,7/2,7,
{4}7/1-5[8:1],1/7-3[8:1],{8}7/1,{16}2,1,{8}2,5/4,
3/6,{16}7-3[8:1],8-4[8:1],,7,{8}8,,,6,7,
8,E5,B3,8,1,E6,E4,1,
2,{16}6-2[8:1],5-1[8:1],,6,{8}5,,,2/4,3/5,
4/6,E1/B8/B1,B5/E5/B4,2/7,3/6,E5/B5/B4,B8/E1/B1,5,
6,{16}8-4[8:1],1-5[8:1],,8,{8}1,,,3h,2h[8:1]/7h[8:1],
,B6h[8:1]/B3h[8:1],,1h[8:1]/8h[8:1],,E7h[8:1]/E3h[8:1],,6h[8:1]/3h[8:1],
{16},,5/4,6/3,{8}2/7,8b/1b,,6,3,7pp4[8:5],
{1}2qq5[16:9],
{16}3,3,,7,{8}7,5>2[8:1],6,7/5,{4}8,
{16}6,,,2,{8}2,6<1[8:1],E3,C,{4}E7,
{16}3,3,,7,{8}7,{16}2>5[8:1],2,{8}8,7/2,{4}6,
{16}7,,,4,{8}4,7<4[8:1],E4,C,{4}E8,
{16}8/1>4[8:1],,,4,{8}4,5,6<1[8:1],4,{4}4/6,
{16}5/4>1[8:1],,,8,{8}8,7,{4}7<4[8:1],1/7,
{16}E7h[8:3],,,B4,{8}B3,B1,{16}E3h[8:3],,,B5,{8}B6,B8,
4/5-7[8:1],3,5/4-8[8:1],3,5/4,{16}B5,B6,{8}E7,{16}B1,B2,
{8}E3,,,2,{4}5,{8}2-5[8:1],7,
{16}2/6,,,7,{8}1-4[8:1],6,{16}8/1,,,7,{8}8-5[8:1],7,
8/2,,,3h[8:1],{16},,,3,,,{8}8,
{16}1x/8x,2x/7x,3x/6x,4bx/5bx,,,{8}6,7,8,1,2,
{16}6h[16:3],,,B1/E2/B2,,,{8}3,2/5,1,8/4,7,
{16}3h[16:3],,,B8/E8/B7,,,{8}6h[8:1],7h[8:1],8h[8:1],1h[8:1],2h[8:1],
{16}3h[16:3],,,B8/B1/E1,,,{8}5h[16:5]/6h[8:1],{16},,,4h[16:5],,,{8}3h[8:1],
,,{4}2-8[8:1]/5-7[8:1],2/5,1h[8:1]/6h[8:1],
{8}7/8,{16},,,,3,4,{8}3,2/5,{16}7,8,{8}7,
{16}6/1,,,2/7,,,{8}5,5/3h[8:1],8,5/3h[8:1],7,
{16}5/3h[16:3],,,6,,,{8}5/3,2,7/1,8-6[8:1]*-5[8:1],4,
{4}8-3[8:1]*-2[8:1],8w4[8:1],8,{8}6,2,
{16}8b/4b,,,7,{8}4,{16}2,2,5,4,,6,{8}5,3h[8:1],
{16},,,2,{8}5,{16}7,7,4,5,,3,{8}4,6h[8:1],
{16},,,2,{8}7,{16}4,4,6,2,,7x/2x,{8}8-4b[8:1]/1-5b[8:1],3/6,
{4}8-6[8:1]/1-3[8:1],1/8,4pp4[4:1]*qq4[4:1],4,
{8}E5/B4/E4/A4f,{16},,,,2,2,5,4,,6,{8}5,7h[8:1]/8h[8:1],
,3h[8:1]/4h[8:1],,2h[8:1]/1h[8:1],,6h[8:1]/5h[8:1],,2h[8:1]/7h[8:1],
{16},,,1,{8}8,{16}4,4,7,3,,6,{8}2,7/3,
8/2,{16}6,5,{8}4,{16}1,2,{8}7x/3bx,4b/8,1/5b,2/6b,
3/7b,{16}4,5,{8}4,{16}4,6,{8}4,{16}4,7,{8}4,{16}4,8,
{8}4,{16}4,7,{8}4,{16}5,4,{8}5,{16}5,3,{8}5,{16}5,2,
{8}5,{16}5,1,{8}5-7[8:1],5,{4}5/4-2[8:1],4/5-7[8:1],
5/4-2[8:1],4/8-6[8:1],8/1-3[8:1],8/1,
{16}1,,,1/8,{8}7x/2x,{16}4,4,{8}5,{16}4,4,{8}6,{16}4,4,
{8}7,{16}4,4,{8}8,{16}4,4,{8}1,{16}4,4,{8}8,{16}4,4,
{8}7,{16}4,4,{8}6,{16}1,2,{8}3x/5x,{16}8,7,{8}6x/4x,{16}8,1,
{8}2x/6x>3[16:3],5,6x/2x-7[16:3],1,2x/5x-8[16:3],6,3x/5x,2,
1,{16}6,4,{8}6,{16}2,2,6,5,,3,{8}4,6-3-6[8:1]/2-7-2[8:1],
3/7,,,8-5-8[8:1]/4-1-4[8:1],5/1,,,B5/B4/E5,
E1/B8/B1,{16}3,5,{8}3,{16}7,7,4,5,,1,{8}8-4[8:1],7,
8/2-6[8:1],3,2/8-4[8:1],7,8/2-6[8:1],3,2/8,7,
4/5,{16}3,5,{8}3,{16}7,7,3,4,,5,{8}6,8-3-8b[8:1]/4-7-4b[8:1],
7/3,,,6-1-6b[8:1]/2-5-2b[8:1],5/1,,,B6/B5/E6,
E2/B1/B2,{16},,,,4,5,6h[4:1],,,2,{8}2,7,
{16}8h[4:1],,,4,{8}4,6,8b/1b,4b/3b,1b/8b,5b/6b,
Cf/E1/E8/B8/B1/E2/B2/E3/E4/B3/B4/B5/E5/E6/B6/E7/B7,,,,,,,5,
6,E4,E2,7,8,E4,E6,1,
{4}2,{8}E8,E4,E2,E6,{4}1p1-5pp5qq5b[1:1],
E
