&title=神様の渦 (feat. nicamoq)
&artist=Yunomi
&first=0
&des_5=Mikage001
&lv_5=14
&des=Mikage001
&inote_5=(87)
{4},,,B2,
{4},,,B8,
{4}4h[1:1],,,B6,
{4},,,4qq6[8:5],
{4},B2`B3,,5pp3[8:5]`B2`B3,
{4},B7`B6,,4<3[8:5]`B7`B6,
{4},B2`B3,,4h[4:1]`B7`B6,
{32}7,,6,4,5,3,4,,2/5,,3,5,4,6,5,,4/8,,7,5,6,3,4,,1/C,,,,,,,,
{16}5-1[16:1],,3q4[4:1],3,5,,3b/8b<5[32:3],,,8,8,,2>4[12:1],,,,
{16}2-5[12:1],,6-2[12:1],,2<5[32:5],,6b>6[4:1],,,3,3,,C,,3,,
{16}4-8[16:1],,6p5[4:1],6,4,,6b/1b>4[32:3],,,1,1,,7<5[12:1],,,,
{16}7-4[12:1],,3-7[12:1],,7>4[32:5],,3b<3[4:1],,,6,6,,C,,7h[8:1],,
{16}4-8[16:1],,{32}3q4[4:1]/8x,7x,6x,5x,{16}4x/2,,3b/7bqq8[4:1],,,7,7,,2-4[12:1],,3,,
{16}2-7[12:1],,6-2[12:1],6,2<5[32:5],,6b>5p4[32:7],,,3,3,,2,,1h[8:1],,
{16}5-1[16:1],,{32}6p5[4:1]/1x,2x,3x,4x,{16}5x/7,,6b/2bpp1[4:1],,,2,2,,7-5[12:1],,6,,
{16}7-2[12:1],,3-7[12:1],3,7>4[32:5],,3b<4q5[32:7],,,6,6,,7,,8h[8:1],,
{16}4h[8:1],,6,5h[8:1],,,3h[8:1]/7h[4:1],,,4,4,,2/5<8[8:1],,3/4,,
{16}4h[16:3]/5>2[8:1],,,,6h[16:3]/5<8[8:1],,,,4h[16:3]/5>2[8:1],,,,5/6,,7-4[8:1],,
{16}8/1,,7/2,,3v4-7[8:3]*v2-7[8:3],,1/5,,3,,,,,,,,
{16}8h[16:3],,,1,8h[16:3],,,7,8h[16:3],,,1,2/7,,6/3,,
{16}5h[8:1],,3,4h[16:1],3,,6h[8:1]/2h[4:1],,,5,5,,7/4p8[8:1],,6/5,,
{16}6h[16:3]/4q8[8:1],,,,2h[16:3]/4V28[6:1],,,,6h[16:3]/4V68[6:1],,,,4/2,,3,,
{16}2-5[8:1],,1,,8-3[8:1],,7,,6-1[8:1],,5,,4-7[8:1],,3,,
{16}2-6[32:3],,1w5[16:3],,8,,1,,,,,,7/3V52[6:1],,4,,
{8}3/7V58[6:1],6,7/3V51[6:1],4,3/7V58[6:1],6,7/3V14[6:1],4,
{8}3/7V16[6:1],6,7/3V15[6:1],4,3/7V16[6:1],6,7/3V51[6:1],4,
{8}3/7V52[6:1],6,7/3V51[6:1],4,3/7V58[6:1],6,7/3-5-1-7[8:3],2,
{8}3,7w3[4:1],6,,,,6/2V41[6:1],C,
{8}2/6V47[6:1],B7/B8/E8,6/2V48[6:1],B1/E1/B8,2/6V47[6:1],B7/B6/E7,6/2V83[6:1],B2/E3/B3,
{8}2/6V85[6:1],B5/B4/E5,6/2V84[6:1],B3/E4/B4,2/6V85[6:1],B6/B5/E6,6/2,C,
{16}B1,B7,B3,B5,B2,B8,B4,B6,B1/E1,B7/E7,B3/E3,B5/E5,{32}D2,D3,D4,D5,A8,A7,A6,A5,
{48}2,3,4,5,6,7,8,1,2,3,4,5,8,7,6,5,4,3,2,1,8,7,6,5,{16}4w8b[16:1],,,,Cf/B4/B8,,,,
{16}8-4[16:1],8,2pp1[4:1],2,8,,2b/5bpp7[8:1],,,5,5,,3>1[12:1],,8q4[8:1],,
{16}3q8[8:1],,8>7[4:1],,3,,6b,,,8,8w4[8:1],,6/2,,8,,
{16},,2-5[12:1]/6pp2[8:3],3/7,4/8,,2b/6b,,,4,4,,3-6[12:1],,8q5[8:1],,
{16}3v8[32:3],,8<1[4:1],,3,,6b,,,7,7,,C,,6h[8:1],,
{16}1-5[16:1],1,7qq8[4:1],7,1,,7b/4bqq2[8:1],,,4,4,,6<8[12:1],,1p5[8:1],,
{16}6p1[8:1],,1<2[4:1],,6,,3b,,,1,1w5[8:1],,3/7,,1,,
{16},,7v4[12:1]/3qq8[8:3],6/2,5/1,,7b/3b,,,5,5,,4q8[8:1],,8<4[6:1],,
{16}Cfh[2:1],,,,,,,,7,7,,6/8,{32}6/8,,,5/1,,,{16}4/2,
{16}3-7[16:1],,{48}1/2qq3[4:1],8,7,6,5,4,{16}3,,2b/6bqq8[4:1],,,6,6,,2,,3,,
{16}7/4<7[12:1],,{32}8w4[12:1],1,2,3,{16}4xq6[4:1],,8b,,,2,2,,3<5[12:1],,7h[8:1],,
{16}3>1[12:1],,8w4[12:1],8,3q8[8:1],,8>7[4:1],,,6,6,,7,,8,,
{48}7b-3[16:1],6,5,4,,,1bw5b[16:1],2,3,4,,,,,,,,,{16}Cf/B1/B5,,,7/3,7/3,,{24}8,1,2,3,4,5,
{16}6-2[16:1],,{48}8/7pp6[4:1],1,2,3,4,5,{16}6,,7b/3bpp1[4:1],,,3,3,,7,,6,,
{16}2/5>2[12:1],,{32}1w5[12:1],8,7,6,{16}5xp3[4:1],,1b,,,7,7,,6,,24,,
{16}5h[8:7],,6h[16:1],,7h[16:1],,8h[16:1],,1,1,2,2,3,3,4,4,
{32}6,5,7,3,4,2,6,5,8-4-7-2-6-8b[2:1],3,4,1,6,5,7,3,{4}Cf,,
{4},B6,,B7,
{4},B8,,B1,
{4}5h[1:1],B2,,B3,
{4},B4,,6p4[8:3],
{8},4>2[8:1],2<8[8:1],8p6[8:3],,,4>8[16:3],,
{8}4p7[16:3],,4q1[16:3],,4<8[16:3],,4q6[8:3],,
{8},6<8[8:1],8>2[8:1],2q4[8:3],,,8p6[8:3],,
{8}8q2[8:3],,8p5[8:3],,8q3[8:3],,8<8[1:1],,
E
