&title=恋染色
&artist=AcAcia
&first=-0.25
&des=STEXxx
&lv_5=12
&inote_5=(106){4},{16},,,,,,,,,,,,,,,,E6,
B5,B4,E4,,,,,E7,,,C,
,,{8}E3,{16}E2,B1,B8,E8,,,,,E3/B2,,,C,
,,{8}B6/E7,{16}E6,B5,B4,E4,{4}3xh[4:1],{16}8,,,1,
,,{8}2,{16}E2,B1,B8,E8,E7/B7,B6,B5,E5,E3/B3,B2,B1,E1,
{4}8xh[4:1],{16}E6,B5,B4,E4,{4}3x,{16}3,,,2,
,,{8}1,{16}E2,B1,B8,E8,{4}7x,{16}7,,,6,
,,{8}5,{4}5q1[16:3],,2q6[8:1]*q8[8:1],
{16},,,,5/8,,,5/1,,,{8}5/2,{16}3,4,2,5,
1,6,8,7,{4}8-5[8:1],1-4[8:1],5xh[4:1],
{8}2x,6x,{4}1-4[8:1],8-5[8:1],4xh[16:3],
{8},1,{4}8-5[8:1],1-4[8:1],5xh[4:1],
{8}2x,1x,2-5[8:1],1x,8x,7-4[8:1],8x,1x,
2x<8[8:1],3x,{4}4>2[8:1],7<5[8:1],4xh[4:1],
{8},4,{4}4<6[8:1],1>3[8:1],4xh[16:3],
{8},4,5h[4:1],4,3h[4:1],4,{16}5h[16:3],,,4h[16:3],
,,{8}3h[8:1],{4}1>4[8:1],8<5[8:1],{8}2,3,
6/2,1/7,{4}C,{16},,,,,,,,,,,,E2,
B2,B3,E4,{8}6,7,{16}E8,B7,B6,E6,
{8}3,2,{16}E2,B2,B3,E4,{8}6,7,{16}E8,B7,B6,E6,
{8}3,1,{16}E2/B1,B2,B3,E4,E8/B8,B7,B6,E6,E1/B8,B1,B2,E3,
{8}E5/B4,B6/E7/B7,{16}6x/1x,,,2/7,,,{8}8<5[8:1]/3p7[8:1],{4}8/3,
,1-5[8.4906##0.283]*-5[8.4906##0.283],2/8,7/3,
6/4,5/4-7[8:1],,3/6-3[8:1],
,2-4[8:1],8,8-6[8:1],
2,{16}5/4,,,6/3,,,{8}7/2,1-5[8:1],1,
{4}1,5/4>2[8:1],7<5[8:1],2<8[8:1],
5>2[8:1],8<5[8:1],1-5[8:1],5pp5[4:1]*qq5[4:1],
{16},,,,,,,2,,,{8}1,{16}6/4,,,7,
,,{8}8,6/3,3,2,1,8/B4,7/B3,
6/B2,B1/5xq2[8:1]*p8[8:1],,,,,,,,,{4}3/7-3[8:1],
2/7-2[8:1]*-2[8:1],6,
1-6[8:1],2/1-5[8:1]*-5[8:1],8/1-4[8:1],2/1-5[8:1]*-5[8:1],
8-3[8:1],7/8-4[8:1]*-4[8:1],1/8-5[8:1],7/8-4[8:1]*-4[8:1],
2v5[8:1]*v7[8:1],2-6[8:1],2-5[8:1]*-5[8:1],8,
7/4,4/1v6[8:1],2/1-5[8:1]*-5[8:1],8/1v4[8:1],
2/1-5[8:1]*-5[8:1],8v3[8:1],7/8-4[8:1]*-4[8:1],1/8v5[8:1],
7/8-4[8:1]*-4[8:1],1h[8:3],{8}4,5,{16}6/2,,,6/3,
,,{8}4/6,{16}6/5,,,7/4,,,{8}8/3,{4}2-6[8:1]/1-5[8:1],
,7<4[8:1],8h[8:1],8<5[8:1],
1h[8:1],1<6[8:1],2h[8:1],2<7[8:1],
3h[8:1],3>1[8:1],4<6[8:1],3p7[8:1],
5q1[8:1],2-6[1.1321##0.566],,,,8v5[8:1],
1v4[8:1]*v4[8:1],5h[4:1],
{8}3,2,{4}1v4[8:1],8v5[8:1]*v5[8:1],4h[16:3],
{8},1,{4}8v5[8:1],1v4[8:1]*v4[8:1],5h[4:1],
{8}3,2,2-5[8:1],1,8,7-4[8:1],8x,1x,
2x<8[8:1],3x,4>2[8:1],6x,7x<5[8:1],8x,{4}4h[4:1],
{8},4,4<6[8:1],2,1>3[8:1],8x,{4}4h[16:3],
{8},4,5h[4:1],4,3h[4:1],4,{16}5h[16:3],,,4h[16:3],
,,{8}3h[8:1],{4}1>4[8:1],8<5[8:1],{8}2,3,
6/2,1/7,{4}8-4[2:1],E2,E6,
1p5[2:1],C,B4,2p5[2:1],
C,3,3q4[4:1],C,
7q8[4:1],C,{2}2qq5[8:3]*qq4[8:3],
{4},4h[8:1],6h[8:1]/3h[8:1],2h[8:1],
7h[8:1]/1h[8:1],8h[8:1],6h[8:1]/7h[16:3],{8}5,7x/4xh[16:1],
,3/7h[8:1],{4}3h[8:11],{16},,,,4,,,5,
,,{8}6,{16}6,,,7,,,{8}8,8/3,3/8,
{4}7/2,{16}B7,B6,B5,B4,{8}2,8,{16}B2,B3,B4,B5,
{8}7,1,{16}B7,B6,B5,B4,E1/B8,B1,B2,B3,B1/E1,B8,B7,B6,
{4}2qq5[2:1],,,7pp4[2:1],
{8},,3,3,2,1/4,1/5,6/1,
7/1,8/1,{16}1x/8xh[8:1],2x,3x,4x,8x/1h[8:1],7x,6x,5x,{4}5xh[4:1],
{8},8/1,{4}3/7q4[8:1],1/7p2[8:1]*p2[8:1],6,
1-6[8:1],2/1-5[8:1]*-5[8:1],8/1v4[8:1],2/1-5[8:1]*-5[8:1],
8v3[8:1],7/8-4[8:1]*-4[8:1],1/8v5[8:1],7/8-4[8:1]*-4[8:1],
2v5[8:1]*v7[8:1],2-6[8:1],2-5[8:1]*-5[8:1],8,
4/7,4/1v6[8:1],2/1-5[8:1]*-5[8:1],8/1v4[8:1],
2/1-5[8:1]*-5[8:1],8v3[8:1],7/8-4[8:1]*-4[8:1],1/8>3[8:1],
7/8<5[8:1]*<5[8:1],8/1h[8:3],{8}4,5,{16}6/2,,,6/3,
,,{8}4/6,{16}7/4,,,8/3,,,{8}1/2,{4}2p5[8:1]/1q6[8:1],
,7<4[8:1]*<4[8:1],7x/8h[8:1],8<5[8:1]*<5[8:1],
8x/1h[8:1],1<6[8:1]*<6[8:1],1x/2h[8:1],2<7[8:1]*<7[8:1]/3p5[8:1],
3x,3>8[8:1]*>8[8:1],3/4<7[8:1]*<7[8:1],4/3q1[8:1]*q1[8:1],
3/5q3[8:1]*q3[8:1],5/2x-6[1.1321##0.566]*-6[1.1321##0.566],{16},,,,,,,,,,4xh[1:0],
3xh[1:0],{4}2xh[4:1],{8},2xh[16:1],{16}3xh[8:1],,,4xh[16:1],
{4}5xh[8:1],{16}5x,4x,6x,3x,7x,2x,8x,1x,7x,2x,7x,1x,
6x,2x,5x,3x,{32}5x,6x,{16}7xh[8:1],3,2x,6,7x,2,1x,7,8x,1,2x,
7x,6x,{8}5xh[32:7],{32}1,,,2x,,,{16}4h[32:5],{32}8,,,7x,,,{16}5h[32:5],{32}2,,,3x,,,{16}4,
{4}6/2,{8}1x,{32}1x,2x,{16}3x,4xh[8:1],,,5x,{8}5xh[8:1],6xh[8:1],
7xh[8:1],8xh[8:1],{16}1xh[8:1],,,2x/8x,,,{8}3x/7xh[4:1],,2x,
{4}1xh[4:1],{16}7xh[1:0],1,6,2,4xh[1:0],3,5,2,1xh[1:0],2,8,3,
6xh[1:0],4,7,3x,{4}3xh[4:1],8xh[16:3],{32}2x/1x,,,8x/3x,,,{16}7x/4x,
{32}8x/7x,,,1x/6x,,,{16}2x/5x,{4}7xp5[2:13]/3xp1[2:13],{1},,,,,,{4},,,5h[4:1]/1h[4:1],
,6h[4:1]/2h[4:1],
{8},7/3,{4}7h[4:1]/3h[4:1],{16},,4,6,4,6,2,7,
3,6,1/5,5/1,{4}3x/7x-3[8:1]*-3[8:1],7/8-4[8:1]*-4[8:1],8/1-5[8:1]*-5[8:1],
1/2-6[8:1]*-6[8:1],2/1-5[8:1]*-5[8:1],8/1v4[8:1],2/1-5[8:1]*-5[8:1],
1x/8v3[8:1],7/8<5[8:1]*<5[8:1],1/8>3[8:1]*>3[8:1],7/8-4[8:1],
8x/2-5[8:1]*-6[8:1],2<7[8:1]*V86[8:1],2>5[8:1]*q6[8:1],2,
7/4,4/1v6[8:1]*v7[8:1],8/1-5[8:1],2/1v4[8:1]*v3[8:1],
2/1-5[8:1],8v3[8:1]*v2[8:1],1/8-4[8:1],7/8v5[8:1]*v6[8:1],
7/8-4[8:1],8/1h[8:3],{8}4,5,{16}6/3,,,6/4,
,,{8}5/6,{16}7/4,,,8/3,,,{8}1/2,{4}2w6[8:1]/1w5[8:1],
{8},,8/7<4[8:1]*<4[8:1],8,7x/8,8,1/8<5[8:1]*<5[8:1],1,
8x/1,1,2/1<6[8:1]*<6[8:1],2,1x/2,2,2>5[8:1]*>5[8:1]/5<8[8:1],2x,
{4}2x/5x,8>3[8:1],8/4<7[8:1]*<7[8:1],4/2q8[8:1],
2>5[8:1]/6<1[8:1],6/2-6[1.1321##2.2641]b*-6[1.1321##2.2641]b*-6[1.1321##2.2641]b,
E
