&title=Anhedonia
&artist=a_hisa
&first=0.04
&des=K45UT4N39T0 with さくと先生
&lv_5=14+
&inote_5=(180)
{1}
,,,,
{4}
,,4,,,,3,,,,2,,,,1h[32:1],,,,8,,,,7,,,,6h[32:1],,,,5,,,,
4h[2:1],,6h[2:1],,3h[2:1],,7h[2:1],,
2h[2:1],,8h[2:1],,1h[4:1],2h[4:1],3h[4:1],4h[4:1],
3h[2:1],,5h[2:1],,2h[4:1],1h[4:1],8h[2:1],,
7-5-8-4-1-3-7[4:6],,,,,,,,
1h[4:1],6h[4:1],2h[4:1],3h[4:1],4h[4:1],,7h[4:1],1h[4:1],
8h[4:1],2h[4:1],7h[4:1],3h[4:1],5h[4:1],,2h[4:1]/4h[4:1],,
1h[4:1],6h[4:1],4h[4:1],7h[4:1],2h[4:1],,1h[4:1]/8h[4:1],,
2h[4:1],6h[4:1],3h[4:1],7h[4:1],4h[4:1],,5h[4:1]/7h[4:1],,
1h[4:1],6h[4:1],2h[4:1],3h[4:1],4h[4:1],,7h[4:1],1h[4:1],
8h[4:1],2h[4:1],7h[4:1],3h[4:1],5h[4:1],,5h[4:1]/4h[4:1],,
2h[4:1]/4h[4:1],,3h[4:1],5h[4:4],4h[4:3],,,,
5h[4:1]/7h[4:1],,6h[4:1],4h[4:2],5h[4:1],,
(90)4>4[16:10]/5,4b,4,4,4<4b[4:3],4,4,5,6,
(180)7h[4:2],,,,4h[4:1],,5h[4:1],,2h[4:2],,,,
6h[4:1],,4h[4:1],,5h[4:2],,6h[4:2],,7h[4:2],,8h[4:2],,7h[4:2],,,4h[4:1],7h[4:1],,1h[4:1]/8h[4:1],,Cf,,,,
{16}
34,,,,2,,,,,,34,,2,,,,34,,2,,,,34,,3,4,3,,2b/5b,,,,
56,,,,7,,,,,,56,,7,,,,56,,7,,,,56,,5,6,5,6,4b/7b,,,,
34,,,,2,,,,,,34,,2,,,,34,,2,,,,34,,3,4,3,,2b/5b,,,,
56,,,,7,,,,,,56,,7,,,,56,,7,,,,56,,5,6,5,6,4b/7b,,,,
3h[8:1],,4h[8:1],,2h[8:1],,5h[8:1],,1h[8:1],,4h[8:1],,2h[8:1],,1h[8:1],,
3h[8:1],,4h[8:1],,2h[8:1],,5h[8:1],,1h[8:1],,4h[8:1],,2h[8:1],,7,,
6h[8:1],,5h[8:1],,7h[8:1],,4h[8:1],,8h[8:1],,5h[8:1],,7h[8:1],,8h[8:1],,
6h[8:1],,5h[8:1],,7h[8:1],,4h[8:1],,8h[8:1],,5h[8:1],,7h[8:1],,2,,
3h[8:1],,4h[8:1],,2h[8:1],,5h[8:1],,1h[8:1],,4h[8:1],,2h[8:1],,1h[8:1],,
3h[8:1],,4h[8:1],,2h[8:1],,5h[8:1],,1h[8:1],,4h[8:1],,2h[8:1],,7,,
6h[8:1],,5h[8:1],,7h[8:1],,4h[8:1],,8h[8:1],,5h[8:1],,7h[8:1],,8h[8:1],,
6h[8:1],,5h[8:1],,7h[8:1],,4h[8:1],,8h[8:1],,5h[8:1],,6,5,6,5,
6xh[8:1],,5h[8:1],,7xh[8:1],,4xh[8:1],,8h[8:1],,5h[8:1],,7h[8:1],,8h[8:1],,
6h[8:1],,5h[8:1],,7h[8:1],,4h[8:1],,8h[8:1],,5xh[8:1],,7xh[8:1],,2,,
3xh[8:1],,4h[8:1],,2xh[8:1],,5xh[8:1],,1h[8:1],,4xh[8:1],,2h[8:1],,1xh[8:1],,
3xh[8:1],,4xh[8:1],,2h[8:1],,5xh[8:1],,1xh[8:1],,2xh[8:1],,3xh[8:1],,4x,,
3x/5x,,26,,1x/7x,,3x/5x,,2-6[8:1]/6,,1x/7x-3[8:1],,2,,7x,,,,4x,,3x,,2x,,1,,8x,,2x,,1,,
3x/8x,,4,,4x/6x,,3x/7x,,28,,1x,,28,,3x/7x,,2x/6x,,1x/5x,,
4/8,,1x,,2x,,3x/5x,,4x/6x,,57,,
8<5[8:1],,,,2,,4>1[8:1],,,,8,,8-4b[4:3],,,,,,,,,,,,,,,,,,,,
2v5[8:1],,,,7,,6>3[8:1],,,,8,,1z5b[4:3],,,,,,,,,,,,,,,,,,,,
3>8[8:1],,,,6,,5q1[8:1],,,,3,,4z8b[4:3],,,,,,,,,,,,,,,,,,,,
7v4[8:1],,,,2,,2>5[8:1],,,,6,,7p4b[4:3],,,,,,,,,,,,,,,,,,,,
1b/2b-5[8:1],,,,2,,7-3[8:1],,,,7,,1p5[4:3]*q5[4:3],,,,,,,,,,,,,,,,,,,,
1b>4[8:1],,,,7,,6q2[8:1],,,,3,,3-7b[4:3],,,,,,,,,,,,,,B3,,C1,,B7,,
5b<8b[8:1],,,,3,,1>4b[8:1],,,,6,,7q2b[2:1],,,,,,,,,,,,,,,,,,,,
1b>2-5[8:1]*>2-5[8:1],,,,1b,,8b<7-4[8:1]*<7-4[8:1],,,,8b,,3b-1>2-8[3:1]*-5>4-6[3:1],,,,,,,,,,,,7,,68,,15,,24,,
3<5[8:1],,,3,,,6,,,,6<1[8:1],,,,16,,
2v5[8:1],,,2,,,6,,,,6v1[8:1],,,,16,,
2-5[8:1],,,2,,,6,,,,6v1[8:1],,,,16,,
2v5[8:1],,,2,,,6,,,,6-1[8:1],,,,6,,
3>8[8:1],,,3,,,7,,,,7<4[8:1],,,,47,,
3v8[8:1],,,3,,,7,,,,7v4[8:1],,,,47,,
3>8[8:1],,,3,,,7,,,,7<4[8:1],,,,7b,,
{12}2bx,,5b/7b,,3b/4b,,2b/8b,,5b/6b,,1b/7b,,
{16}2h[4:1]/8h[4:1],,,,,,1h[8:5],,,,,,,,,,
,,,,,,8h[4:1],,,,,6,5,4,3,2,
1h[1:1]/8h[1:1],,,,,,,,,,,,,,,,,,,,,,,,,,,,,,
6,,1h[4:1],,,,8,,7h[4:1],,,,2,,3h[4:1],,5,,
6,,,37,,,28,,,,3,,8,,3,,
7h[4:1],,2,3,4,,6,5,4h[8:1],,3h[8:1],,2h[8:1],,1h[8:1],,
8h[4:1],,,,,,2h[4:1]/6h[4:1],,,,,,2>8[8:5]/6>8[8:5],,,,26,,,,,,,,,,,,,,
4,,3h[16:1]/5h[16:1],,,2h[16:1]/6h[16:1],,,1h[16:1]/7h[16:1],,,,8,,1,,8,,
1,2,3,4,,,7,,3,4,,6,5,,3,,
6h[16:3],,,7h[16:3],,,8h[4:1],,,,,,,,
3,2,1hh[8:1],,,2h[8:1]/8h[8:1],,,3h[4:1]/7h[4:1],,,,,,4,,5,,
4,3,2,1,,7,6,,4,,7,8,,2,3,4,
6,7,8,1,3,,2,,1,,8,,1,2,,
7h[16:3],,,2,1,,5,6,5,4,,3,,2,,1,,
5bh[4:1]/8bh[4:1],,,,,,,,6h[4:1]/8h[4:1],,,,,,,,
7h[4:1]/8h[4:1],,,,,,1,2,3,,5,,2,,1,,
2h[4:1]/8h[4:1],,,,,,37,46,5,,1x,,2,,3,,
4h[4:3],,,,,,,,,,,,5,,,,
5h[4:1],,,,,,,,4h[4:1]/6h[4:1],,,,,,,,
2h[16:3],,,4h[16:3],,,3h[8:1],,6h[16:3],,,5h[16:3],,,7h[8:13],,1h[8:6],,,,,,,,,,,,,,
2,3,4h[2:1],,,,,,,,,,,,4,6,3,7,
2b,,,,,,8,8,8,,,1,,,2,,
13,,,23,,,34,,,68,,,57,,45,,34,,,24,,,1/4-8[8:1],,4/8b,,,,,,1,,
56,,,57,,,58,,1bv6[8:1]*v4[8:1]/5,,,,1,,,,
7h[16:3],,,5h[16:3],,,6h[8:1],,3h[16:3],,,4h[16:3],,,2h[8:1],,
8h[16:3],,,7h[16:3],,,6h[8:1],,5xh[16:3],,,4xh[16:3],,,2h[8:7],,7h[8:6],,,,,,,,,,,,,,
18,27,3h[4:1]/6h[4:1],,,,,,,,4-1[8:1]/5-8[8:1],,,,4b/5b/Cf,,,,
2h[4:3]/7h[4:3],,,,,,,,,,,,,,27,36,45,,,,,,4-2[8:1],,5-7[8:1],,4v1[8:1],,5,,4,,
7,,,68,,,17,,2,,,35,,,46,,5,,,46,,,37,,28,,,,,,37,,1h[4:3]/Cf,,,,,,,,,,,,,,
8,7,6h[4:2],,,,,,,,3h[16:3],,,5h[16:3],,,4h[8:1],,7h[16:3],,,8h[16:3],,,6h[16:3],,,2h[16:3],,,5h[8:1],,4h[8:1],,
3h[16:3],,,2h[16:3],,,1h[16:3],,,8h[16:3],,,7h[8:1],,1h[8:1],,
8h[4:3],,B1,,B2,,B7,,B6,,B5,,1,,2,,
3,,,7,,,4,,,6,,,1,,8,,2h[4:3],,B8,,B7,,B3,,B4,,B5,,8,,3,,
6,,,1,,,27,,,,36,,,,
6,7,8h[8:1],,,7h[8:1]/1h[8:1],,,6h[4:1]/2h[4:1],,,,,,5,,4,,
5,6,7,8,,2,3,,5,,2,1,,7,6,5,
3,2,1,8,6,,7,,8,,1,,8,7,,
2h[16:3],,,7,8,,4,3,4,5,,6,,7,,8,,
4bh[4:1]/1bh[4:1],,,,,,,,3h[4:1]/1h[4:1],,,,,,,,
2h[4:1]/1h[4:1],,,,,,8,7,6,,4,,7,,8,,
7h[4:1]/1h[4:1],,,,,,62,53,4,,8x,,7,,6,,
5h[4:3],,,,,,,,,,,,3h[4:1],,,,
4h[4:1],,,,,,,,5h[4:1]/3h[4:1],,,,,,,,
7h[16:3],,,5h[16:3],,,6h[8:1],,3h[16:3],,,4h[16:3],,,2h[8:13],,8h[8:6],,,,,,,,,,,,,,
7,6,5h[2:1],,,,,,,,,,,,5,3,6,2,
7b,,,,,,1,1,1,,,8,,,7,,
86,,,17,,,28,,,31,,,42,,54,,35,,,7/5-1[6:1],,,4/5,,5b/6,,,,,,8,,
43,,,42,,,41,,8bv3[8:1]*v5[8:1]/4,,,,8b,,,,
2h[16:3],,,4h[16:3],,,3h[8:1],,6h[16:3],,,5h[16:3],,,7h[8:1],,
1h[16:3],,,2h[16:3],,,3h[8:1],,4xh[16:4],,,,2h[8:7],,,,7h[8:5],,,,,,,,,,,,,,
8<7-5v8[2:1]/1>2-4v1[2:1],7/2,6b/3b,,,,,,,,,,,,,,,,
1/8,,,,4,,2,,,,6,,7,,7,,7,,,,4/5,,3,,,,4,,5,,,,
36,,,,2,,45,,,,7,,45,,,,,,
1,,2,,3,,7,,6,,5,,4,,35,,,,5,,46,,,,4,,35,,,,
24,,,,,,13,,,,,,28,,,,17,,,,,,,,,,,,1,,8,,1q8[8:1],,,,,,7h[48:1],,,,,,
3>5[8:4],4,3,4,3h[16:10],,,,,,,,,,5,,4,,5,,4h[4:1],,,,6,,5h[4:1],,,,6h[8:7],,,,,,
4h[4:3],,,,,,,,,,,,5h[4:1],,,,3h[4:1]
,,,,,,,,4h[4:3],,,,1bh[4:4],,,,,,,,,,,,,,,,,,,,
8h[4:1]/7-2[8:1],,,,,,,,4h[4:1]/3-6[8:1],,,,,,,,5,,5,,7,,5,6,5,6,5,,47,,2,,8qq5[3:1],,,,,,3,2,1b,,,,
1/8,,,,1b,5,2,5,3,5,4,5,4,5,4,6,4,7,4,8,
1b,8,2,7,3,6,4,5,2b,1,3,8,4,7,5,6,
5,4,3,2,6,7,8,1,3,2,1,8,6,7,8,1,
2,3,4,5,3,8,4,8,5,7,4,6,3,5,2,4,
3,2,1,8,4,5,6,7,8b,,,{32}3x,4x,5x,,,,,,,,
{16}
6,7,8,1,5,4,3,2,1b,,,,2b/8b,,,,
2,3,4,5,8,7,6,5,
{24}1,2,3,8,7,6,2,3,
4,7,6,5,
{32}2,3,4,5,6,7,8,1,2,3,4,5,6,7,8,1,
2,3,4,5,6,7,8,1,2,3,4,5,6,7,8,1,
2bz6-4-7[4:11]/6b-8-2>3-5[4:11],,,,,,,,,,,,,,,,,,,,,,,,,,,,,,,,
{1},,,,,,,
{16}
45,,6,,3,,4,,5,,6,,4,,5,,3,,4,,2,,4,,3,,5,,4,,6,,
5,,7,,1,,8,,2,,7,,3,,6,,4,,6,,2,,8,,3,,7,,4,,6,,
56,,7,,4,,5,,6,,7,,5,,6,,4,,5,,3,,5,,4,,6,,5,,7,,
6,,8,,2,,1,,3,,8,,4,,7,,5,,7,,3,,1,,4,,8,,5,,7,,
18,,2,,7,,8,,1,,2,,8,,1,,7,,8,,6,,8,,7,,1,,8,,2,,
1,,3,,5,,4,,6,,3,,7,,2,,8,,2,,6,,4,,7,,3,,8,,2,,
3b/4,,5,,2,,3,,4,,5,,3,,4,,2,,3,,1,,3,,2,,4,,3,,5,,
4,,6,,8,,7,,1,,6,,2,,5,,3,,5,,1,,7,,26,,,,,,,,
3b/5b,,,,4,,,,46,,,,5,,,,45,,,,,,,,3,,,,2,,,,
17,,,,8,,,,28,,,,{24}2,1,2,{16},,38,,,,,,,,4,,,,,,,,
57,,,,6,,,,35,,,,2,,,,{24}3,4,3,,,,,,,,,,2,1,2,,,,,,,,,,
{12}3,,,4,5,4,5,,,{16}37,,,,
46,,,,{12}8,7,6,45,,,,,,
{16}6b/4b,,,,5,,,,53,,,,4,,,,54,,,,,,,,6,,,,7,,,,
82,,,,1,,,,71,,,,{24}7,8,7,,,,{16}61,,,,,,,,5,,,,,,,,
4b/2b,,,,1,,,,68,,,,7,,,,
8,,,,{24}6,5,6,,,,3,4,3,,,,{16}5,,,,
36,,,,27,,,,1/8-5[8:1],,,,8,,,,2,,,,3,,,,5,,,,6,,,,
3bh[4:1],,,,5h[4:1],,,,2h[4:1],,,,6h[4:1],,,,4h[4:1],,,,,,,,
7h[4:1],,,,2h[4:1],,,,8h[4:1],,,,3h[4:2],,,,{32}1h[16:3],,,,,,,8x,7xh[4:1],,,,,,,,5h[4:1],,,,,,,,
{16},,,,4h[4:1]/6h[4:1],,,,,,,,
7bh[4:1],,,,5h[4:1],,,,4h[4:1],,,,3,,,,{24}5,4,5,,,,,,,,,,3,4,3,,,,,,,,,,
{12}6,,,4,5,4,5,,,{16}36,,,,45,,,,{12}1,2,3,45,,,,,,
{16}6bh[4:1],,,,4h[4:1],,,,7h[4:1],,,,3h[4:1],,,,5h[4:1],,,,,,,,
2h[4:1],,,,7h[4:1],,,,1h[4:1],,,,6h[4:1],,,,{32}8h[16:3],,,,,,,1x,2xh[4:1],,,,,,,,4h[4:1],,,,,,,,
{16},,,,5h[4:1]/3h[4:1],,,,,,,,
5b/7h[4:1],,,,8,,,,3h[4:1]/1,,,,2,,,,
1,,,,{24}2,3,4h[24:4],,,,7,6,5h[24:4],,,,{16}4,,,,
63,,,,72,,,,8/1-4[8:1],,,,1,,,,7h[4:1],,,,6h[4:1],,,,5h[32:9],,,,{32},Chf[32:13],,,,,,,
{16},,,B4/B3,,,,,,,,,,,,,
3,,4,,3,,,,4,,,,5,,,,6,,,,7h[4:3],,,,5,,4,,3,,2,,1,,8,,7b-3[2:1],,,,E4,,,,E5,,,,
E6,,,,2h[2:1],,,,7,,,,6,,,,3,,5,,3,,,,45,,,,35,,,,25,,,,1h[4:3],,,,3,,4,,5,,6,,7,,8,,1b-5b[2:1],,,,B8,,,,B3,,,,
B6,,,,7h[1:1],,,,C1,,,,B1,,,,B2,,,,3h[2:1],,,,B7,,,,8h[2:1],,,,B2,,,,1h[1:1],,,,B5,,,,B7,,,,B5,,,,B7,,,,B8,,,,B1,,,,
B2,,,,7h[2:1],,,,B4,,,,3h[2:1],,,,B5,,,,5h[2:1],,,,B4,,,,3h[2:1],,,,B6,,,,
6/4>7b[4:3],,,,E5,,,,E6,,,,7>4b[4:3],,,,E6,,,,E8,,,,E7,,,,
E6,,,,5h[2:1],,8,,1,,2,,3h[2:1],,2,,4,,5,,6,,8,,1,,2,,3,5,1,7,2,8,3,7,
4,,5,,6,,4h[8:3],,5,,3,,2,,1,,8h[8:3],,6,,5,,4h[8:3],,3,,2,,
1-5[8:1],,8,,7,,6,,
5x,,4,,3,,,3h[16:3],,,4,,5,,6h[8:3],,7,,8,,1h[8:3],,2,,3,,4,,5pp1[4:3],,4,,3,,2,,3,,2,,
1<6[4:1],,,,6>3[4:1],,,,3>8[4:1],,,,8<5[4:1],,,,5-1[4:1],,,,
4h[2:1],,,,,,,,6h[2:1],,,,,,,,3,,1,,8,,7,,1,,2,,3,,4,,1h[4:2]/5h[4:3],,,,,,,,,,,,
1,,2,,34,,,68,,,12,,45,,,,,,,,
6h[4:3]/1,,2,,3,,4-8[8:1],,4,,,,,,,,7-4[8:1]/8v3[8:1],,,,,,,,1-5[8:1]/2-5[8:1],,,,
,,,,C,,,,E2,,B4/E4,,,,E8,,E6/B5,,,,8p1[8:1],,,,,,,,
5,6,5,6,4,7,4,7,65,,,,7,,,,,,65,,7,,,,65,,7,,,,65,,6-1[8:1],5,6,,6,,,,
43,,,,2,,,,,,43,,2,,,,43,,2,,,,43,,3-8[8:1],4,2,5,3,,,,
65,,,,7,,,,,,65,,7,,,,65,,7,,,,65,,6v1[8:1],5,7,,6,,,,
43,,,,2,,,,,,43,,2,,,,43,,2,,,,43,,3>1[8:1],4,3,4,3,,,,
7b/8,,,,6,,,,,,78,,6,,,,78,,6,,1b,,78,,7b-4[8:1],8,7,,7b,,,,
1/2b,,,,3,,,,,,12,,3,,,,1b/2,,3,,,,1/2,,2b-5[8:1],1,3,8,2,,,,
7b/8,,,,6,,,,,,78,,6,,,,78,,6,,,,78,,7v4[8:1],8,6,,7,,,,
1/2b,,,,3,,,,,,12,,3,,,,1b/2,,3,,,,12,,2>4[8:1],1,2,1,2,,,,
5b<8[8:1],,,,3,,1b>4[8:1],,,,5,,5b-1b[4:3],,,,,,,,,,,,,,,,,,,,
3bv8[8:1],,,,6,,7b>2[8:1],,,,5,,4b-8b[4:3],,,,,,,,,,,,,,,,,,,,
2b>5[8:1],,,,7,,8bp4[8:1],,,,2,,1bs5b[4:3],,,,,,,,,,,,,,,,,,,,
6bv1[8:1],,,,3,,3b>8[8:1],,,,7,,6bq1b[4:3],,,,,,,,,,,,,,,,,,,,
2bV48b[4:1],,,,2b,,6bV84b[4:1],,,,6b,,2bx,,3bx-7b[4:2],,,,,,,,,,,,,,,,,,
1bV37b[4:1],,,,1b,,5bV73b[4:1],,,,5b,,1bx,,2bx-6b[4:2],,,,,,,,,,,,B2,,C,,B6,,
7bV51b[4:1],,,,7b,,3bV15b[4:1],,,,3b,,7bx,,6bx-2b[4:2],,,,,,,,,,,,,,,,,,
B3/E4,,,,E8/B7,,E6/B5,,,,B1/E2,,Ch[4:1],,,,,,,,1,1,1,,1,,1,,1-5[8:1],,1,,
1`Cf,,,,3,6,4,5,4,,35,,26,,3,,6,4,5,3,4,2,6,,17,,68,,
56,,{32}5/4x,3x,2x,1x,7/8x,,,,8,,8,,7,,,,17,,,,1,,1,,8,,,,1,,,,2,,,,38,,,,2,,1,,3,,8,,4,,7,,5,,,,46,,,,
{32}37,4,5,6,7,8,1,2,3/7,,,,8,,3h[8:1],,,,5,,1,,,,8/4,,,,2,,,,6,,,,
1,,7,,1,,2,,3,,4,,56,,7,,8,,1,,2b,,,,,,1b/3b,,,,,,4b/5b,,,,7b/8b,,,,,,,,
6,,5,,6,,5,,6,,7,,8,,1,,7,,8,,1,,2,,3h[16:5]/7h[16:5],,,,,,,,,,,,26,,15,,48,,,,,,6,,,,,,17,,,,
2h[8:1],,,,8,,4h[8:1],,,,7,,36,,,,5h[8:1],,,,4,,6h[8:1],,,,3,,27,,,,
3h[8:1],,,,5,,1h[8:1],,,,7,,8,,,,34,,,,56,,,,7v4[8:1]/8>3[8:1],,,,16,,,,78,,,,,,,,,,,,5,,6,,78,,,,,,18,,,,,,12,,,,
5-2[8:1]/4,,,,,,,,6/5-8[8:1],,,,,,,,4/5,,,,,,,,
4/5w1b[8:1],,,,,,,,5b,,,,,,,,
3,,2,,1,,8,,7,,,,,,45,,,,,,34,,,,3,,4,,2,,8,,6,,7,,5,,6,,4,,7,,3,,8,,
12,,,,38,,,,47,,,,6,,56,,,,3,,34,,,,18,,,,7,,68,,
,,2,,13,,,,2b/7b,,,,2,,3,,2,,3,,4,,3,,4,,,,4/5,,,,7,,7,,8,,8,,
{16}1h[4:1],,,,B4,,,,3h[4:1],,,,B5,,,,6h[4:1],,,,B3,,,,
2h[4:1],,,,B6,,,,7h[4:3],,,,B4,,,,B3,,,,B2,,,,
1h[4:3],,,,B5,,,,B6,,,,B7,,,,8h[4:3],,,,B3,,,,E2,,,,
B3,,,,2h[4:1],,,,B6,,,,6h[4:1],,,,B4,,,,4h[4:3],,,,
B7,,,,B6,,,,B5,,,,5h[4:1],,,,B3,,,,3h[4:1],,,,
C,,,,45,,3,,2,,4,,5,,3,,2,,4,,56,,4,,3,,5,,6,,4,,3,,5,,
67,,5,,4,,6,,7,,5,,4,,6,,81,,7,,6,,8,,1,,7,,6,,8,,12,,8,,7,,1,,2,,8,,7,,1,,
34,,2,,1,,3,,4,,2,,1,,3,,23,,8,,7,,2,,3,,8,,7,,2,,1,,8,,7,,6,,5h[4:1],,,,,,,,
45,,4,,5,,6,,17,,2,,3,,4,,56,,7,,8,,1,,
12,,8,,3,,6,,58,,1,,2,,3,,47,,6,,5,,4,,
13,,8,,4,,7,,4,6,2,8,1,7,3,6,
54,,5,,4,,3,,82,,7,,6,,5,,43,,2,,1,,8,,
87,,1,,6,,3,,41,,8,,7,,6,,52,,3,,4,,5,,
86,,1,,5,,2,,5,3,7,1,8,2,6,3,
46,,5,,6,,7,,28,,3,,4,,5,,67,,8,,1,,2,,
23,,1,,4,,7,,61,,2,,3,,4,,58,,7,,6,,5,,
24,,1,,5,,8,,5,7,3,1,2,8,4,7,
46,,5,,3,,24,,13,,28,,17,,6,,56,,47,,38,,2,,12,,28,,
27,,26,,25,,34,,45,,6,,56,,46,,36,,26,,17,,34,,28,,56,,47,,,,,,,,
3b/8b,4,5,6,7,8,1,2,36,5,4,3,2,1,8,7,
16,2,3,4,25,3,4,5,36,4,5,6,47,5,6,7,8,2bx,,,
2,1,2,4,3,8,5,6,1,7,1,8,2,1,3,8,4,7,5,6,8,6,1,6,2,6,3,6,
4h[8:1],,5,3h[8:1],,6,27,,8h[8:1],,
2,7h[8:1],,3,46,,3h[8:1],,5,2h[8:1],,6,17,,
2h[8:1]/8h[8:1],,,3h[8:1]/7h[8:1],,,
46,,3/5<1[4:1],,,,1>8b[8:3],,1,,,,,,,,,1x,2xv5[8:1],,,,,,,,
8,4,7,4,6,4,5,4,6h[8:1],,5,4h[8:1],,5,35,,3h[8:1],,4,2h[8:1],,5,16,,
2h[8:1],,1,3h[8:1],,8,4,,5,,3,,26,,1/7<5[16:2],,
8,,78,1,2,3,4,,C,,,B5/B7,,,B2/B4,,18,,,24,,,67,,35,,4,,
25,,16,,78,1,2,3,4,5,6,7,8,1,2,3,4,5,6,7,
58,4,3,2,1,8,7,6,35,4,5,6,7,8,1,2,7,1,7,8,7,1,6,8,7,2,5,8,7,3,4,3,
2b/5b,,7,6,7,6,5,6,5,,4/5,,3,3,1,1,
2h[2:1],,,,B1,,,,8h[2:1],,,,C1,,,,6h[2:1],,,,B7,,,,4h[2:1]
,,,,B4,,,,3h[1:1],,4,,5,,6,,7,,6,,5,,4,,
4h[1:1],,6,,7,,8,,1,,2,,3,,2,,2h[1:1],,4,,3,,1,,8,,7,,6,,7,,
8h[8:3],,7,,6,,5,,5h[8:3],,4,,3,,2,,1,,8-2[8:1],,,,8-6-4[4:1]/6,,,,8,,2q5[8:3],,,,2,,1,,8,,7,,6,,65,,54,,,,
52,3,4,5,6,7,8,,7,8,6,1,5,2,4,,2,1,3,8,4,7,5,6,4,5,3,4,2,,,,
1-5[8:1],,1,,1/7-3[8:1],,7,,4-1[8:1]/7,,4,,4/6-3[8:1],,6,,6/1q5[8:1],,1,,18,,8,,8/4,37,26,15,26,
37,48,,5,8,5,7,4,6,4,5,3,5,4,5,2,4,3,4,1,2,3,4,5,6,7,8,1/5,,64,,
7-5v8[4:1]/3-5v2[4:1],,82,,37,,,,,,B1,,,,B5,,,,Ch[16:10],,,,,,,,,,
1w5[8:1],,,,1b,,,,2/7,,3,4,3,,2,,4,3,4,3,5,4,5,4,6,,
6,5,6,5,6,,4/6-2[8:1],,4,,4-1[8:1]/6,,4,,4/8,,7,6,5,4,3,2,
1,8/4,3,2,1,8,1,8,1b,,3,4,2,,4,3,5,4,7,,1,2,3,4,5V74[4:1]/6,,
4,,35,,2,,1,2,3,4,8,7,6,5,3>1[8:1]/4,,5,,3/6,,5V74[4:1],,4,,3/5,,2,,
1,,8,1,2,3,4,5,6,7,8/5,6,7,8,1,2,3,4,5/1,2,3,4,5/1,8,7,6,
5/4-8[8:1],3,2,1,8b,,,,27,,6,5,6,,7,,5,4,3,2,5,6,7,8,2,,
4,3,4V25[4:1],,
5,,64,,7,,8,7,6,5,1-5[8:1],,28,,1,,5x,6,7,8,1/2V48[4:1],,,,
2/5x,6x,7V51[4:1],,8x,,1,,2,,3,,4,,5,4,5,4,2,,
6,5,6,,7,,5,6,5,6,4,5,4,5,
3h[8:3],,4,,5,,6>7[8:7],,,,
5,,4,,3,,2h[4:3],,,,,,,,,,,,
4-8[8:1],,,,4-2[8:1],,,,4-7[8:1],,,,4,,,,
1,2,3,4,5/6<8[8:1],,4,,6/3,,4V25[4:1],,5,,6/4,,7,,
8,,8,7,6,5,1,2,3,4,6,7,8,1,4,3,2,1,
8/7<5[8:1],,1,,7/2,,1v4[6:1],,8,,7/1,,6,,
5,,5,6,7,8,4,3,2,1,7,6,5,4,1,2,3,4,
5/6<8[8:1],,4,,6/3,,4v1[6:1],,5,,6/4,,7,,
8,,8,7,6,5,1,2,3,4,6,7,8,1,4,3,2,1,
6,5,4,3,2,1,8,7,
6/1,2,3,4,5,6,7,8,1,
3,2,4,3,5,4,6,5h[2:1],,
6,,7,,8,,1b,,3>1[8:1]/4,,5,,3,,,,
2,4,3,5,4,6,5V74[4:1],,
4,,35,,2,,1,2,3,4,8,7,6,5,
2V48[4:1]/4,,5-7[8:1],,2,,5,,,,
1,6,2,5,3,4,3>8[4:1],,,,8<5[4:1],,,,5>2[4:1],,,,
7,,,,5-7[8:1],,34,,5,,2,8,3,7,5-1[8:1],,46,,5,,
4V25[4:1],,
8,,74,,6,,8,7,6,5,1,2,3,4,6<8[8:1]/5,,4,,6/3,,4V25[4:1],,5,,6/4,,7,,
8,,7,6,5,4,3,2,1,8,7/3,4,5,6,7,48,15,26,3b/7b,
,8,,1,,2,,53,,,,7,,,,12,,,3,,,7,,
56,,4,,7,,2,,14,,,5,,,7,,83,,2,,1,,8,,
56,,,4,,,3,,8,,,17,,,81,,
12,,4,,5,,6,,17,,,,68,,,,56,,7,,3,,1,,,,
8,,3,,6,,58,,,,,,57,,1,,2,8,5,7,3,6,
45,,5,,3,,6,5,8bw4[8:1],,,,{32},Cf,,,,,,,
{16}3h[8:1],,4,,4,5,6,7,1,2,3,4,1,8,7,6,45,,
4,,6,,2V48[4:1],5,3,4,2,,7<5[8:1],,,,7,,
3,,4,,7,4,6,5,7,,8<5[6:1],,1,1,8,,2,,3,,7,5,6,4,5,,
5w1[8:1]/1,2,3,4,5b,,,,
4,,6/3,,4V25[4:1],,5,,6/4,,7,,
8,7,6,5,1,2,3,4,6,7,8,1,4,3,2,1,
8/7,,86,,85,,14,,24,,34,,
3,4,3,4,
3,2,1,8,4,5,6,7,
{32}1,2,3,4,5,6,7,8,1,2,3,4,5,6,7,8,1b/Cf,,,,,,,,,,,,,,,,
{2}B1/A1,B2/A2,B3/A3,B4/A4,B5/A5,B6/A6,B7/A7,
{8}1h[2:1],,,,,,,,6h[2:1],,,,,,,,
1>1[4:6]*v3[2:1],,,,,,,,,,,,Cfh[2:1],,,,,,,,,,,,
6h[1:1],,,,,,,,5h[4:6],,,,3h[1:1],,,,,,,,,,,,
1h[4:2]/8h[4:4],,,,,,,,2h[8:3],,,
4h[8:3],,,5h[4:7],,1h[4:7],,,,,,,,,,,,,,,,,,,,E3f,,,,,,,E
