&title=躲在超市后门嚼大果的两人♿
&artist=大水母绚烂
&first=0.04
&lv_6=13+
&des_6=R_Phoenix
&inote_6=
(117){4},{8},6bx<2v4[8:3],,6bx/A4fh[8:3],,,,8bxpp5[0.5128##1.5385]/2bxqq5[0.5128##1.5385],
{32},,,,A1f,B1,C,B5,A1f,B1,C,B5,A1f,B1,C,B5,A1f,B1,C,B5,A1f,B1,C,B5,
,,,,{8}A5f,6bx<2v4[0.2564##1.7949],6bx/A4fh[8:7],,,,,,,,D7f/Cf/E3f/D3f/E7f,
D1f/Cf/E5f/D5f/E1f/A8f/D8f/A7f/A1f/D2f/A2f,Cfh[8:5]/1bxp5p1[1.0256##0.2564],,,,,,4/5q3b[2:1],
{16},7,{8}8<6[0.2564##0.2564],{4}8>2[8:1],
,5-3[8:1],{8}1h[4:1]/5-7[8:1],B8/B1/B2,5,2/B6/B5,
,8/B4/B3,,5/4p6b[2:1],{16},2,{8}1>3[0.2564##0.2564],{4}1<7[8:1],
,4-6[8:1],{8}8h[4:1]/4-2[8:1],B1/B8/B7,4,7/B3/B4,
,1/B5/B6,,8/1p7b[2:1],{16},3,{8}4-2[0.2564##0.2564],{4}4-6[8:1],
,1<7[8:1],{8}5h[4:1]/1>3[8:1],B4/B5/B6,1,6/B2/B1,
,4/B8/B7,,1/8q2b[2:1],{16},6,{8}5-7[0.2564##0.2564],{4}5-3[8:1],
,8-2[8:1],{8}4h[4:1]/8-6[8:1],B5/B4/B3,8,3/B7/B8,
,B1/B2/5-1-6[8:3],6,A3/B3/5-2[8:1],4,5-1[8:1],{4}A2/A6,
{8}4,3/6,{4}D7/C/E3/D3/E7,{8}D1/C/E5/D5/E1/A8/D8/A7/A1/D2/A2,Ch[8:1]/1bp5p1[0##0.2564],,,B4/B3/8-4-7[8:3],
7,A2/B2/8-3[8:1],1,8-4[8:1],A3/A7,{4}8,
{8}5/3-5-3-5-3[8:1],2,{4}3/5,{8}2-6-2[8:1]/7-1-7[8:1],6/1,{4}2/7,
{8}B4/B3/8-4<7[8:3],7,A2/B2/8>3[8:1],1,8-4[8:1],A3/A7,8,3,
,,{4}8h[8:5]/4qq8[8:3],{8},,,,4,
3qq7[8:3],2,3x,4-7[0.7692##0.2564],5,6,4-1[8:1],
2,4-8[8:1],6,4/8xw4[8:1],,,,,2/6,
5/3-8[8:1],1,3/5-8[8:1],7,5/3,1h[8:3],2,
3,4,{16}C/1p5p1[8:3],C/1p5p1[16:5],{8}Ch[2:1]/1p5p1[4:1],,,,,6/2,
3/7-2[8:1],8,{16}7/3-8[8:1],4,{8}5,{16}3/7,6,{8}5,6/2-5[8:1],
7h[16:1]/3h[16:1],6/2,1-7[8:1],2-4[8:1],1-5[8:1],2,1,4>3>2-7<6>5[1.5385##0.2564],
3>2<1<8<7<6>5[1.2821##0.2564],2-7<6>5[1.0256##0.2564],1<8<7<6>5[0.7692##0.2564],4,,4b,,1,
8,7-5-2[4:1],,2-4-7[4:1],1,8,{32}8,1,2,3,{8}4,
1,2pp6[8:3],3,2x,1-6[0.7692##0.2564],8,7,1-4[8:1],
3h[16:1],1-5[8:1],7h[16:1],1/5xw1[8:1],,,,C,
6/7,7/8,{4}1/8v5[8:1],{8}2/8v3[8:1],3,{4}8/4,
{8}2/3,3/4,{4}5/4v1[8:1],{8}6/4v7[8:1],7,{4}4/8,
{8}3/5,2/6,7/1-3[32:3],8,1/7-5[32:3],8,7/1v4[32:3],8,
1/7v4[32:3],8,7/1,8,1p4[8:1]/7q4[8:1],2/6,{4}1/7,
{8}6/8,7/1,{4}2/8v5[8:1],{8}4/8v3[8:1],2,{4}8/4,
{8}7/5,6/4,{4}3/5v8[8:1],{8}1/5v2[8:1],3,5/1,1p5p1[2.3077##0.5128],
1p5p1[2.0513##0.5128],5p1[1.7949##0.5128]*p1[1.7949##0.5128],{4}5p1[1.5385##0.5128]*p1[1.5385##0.5128],{32}1,5,1,5,1,5,1,5,{64}1bx,5x,1x,5x,1x,5x,1x,5x,1x,5x,1x,5x,1x,5x,1x,5x,
{8}1x,,,A1f/D1f/A8f/D8f/A7f/D7f/A6f/D6f/A5f/D5f/A4f/D2f/D4f,,A8f/B8f/Cf/B4f/A4f/D8f/A7f/D7f/A6f/D6f/D2f/A2f/A3f/D4f/D3f,A8f/A6f/B8f/Cf/B2f/A2f/D8f/A7f/D7f/D3f/A3f/D4f/A4f,{32}A1f/B1f,B2f/A2f,B3f/A3f,B4f/A4f,
B5f/A5f,B6f/A6f,B7f/A7f,A8f/B8f/Cfh[32:1],{8}A1f/B1f,{32},,,,6b<7>8>1>2>3<4[4:1],5b,4b-7[0.8974##0.2564]*-1[0.8974##0.2564],3b,2b,1b,8b,7b,6b/A4f,A3,A2,A1,A8,A7,A6,A5,{8}A4f,
,3bpp8[4:3]/5bqq8[4:3],3b/5b,{32}A7f/A1f,A6/A2,A5/A3,A4,A7f/A1f,A6/A2,A5/A3,A4,A7f/A1f,A6/A2,A5/A3,A4,A7f/A1f,A6/A2,A5/A3,A4,A7f/A1f,A6/A2,A5/A3,A4,
,,,,{8}A8f,{32},,,,6b,B6,C,B2,{8}2h[8:1],{32}6b,A5,A4,A3,{8}8h[8:1],{32}6b,A7,A8,A1,
{8}4h[8:1],{32}6b,B6,C,B2,E2,B1,B8,E8,{8}1p5[0.2564##0.2564],5p1[0.2564##0.2564],Ch[8:1],{32},,,,7bh[#0.7692337]/6bp1[0.5128##0.2564],,,,{8}1b-6[0.5128##0.1923],
{16}6b,,,,{8}8h[8:1],{32},,,,4/8,3/7,2/6,1/5,8,7,6,5,4/8h[8:3],3,2,1,
,7,6,5,4,3,2,1,{96},,,,,,,,,,,,{24}8-5[8:1],1,7,8-3[8:1]*-3[8:1],7,1,8w4b[8:1],{4},{16},,,{64},{192},{32}4b/5b/E6f/E4f,
3/6/E7/E3,2/7/E8/E2,1/8/D1,4b/5b/E6f/E4f,3/6/E7/E3,2/7/E8/E2,1/D1/8-6[0.5769##0.2564],{96},,,,,,,,,,,,{24}8,1,2,8-5[8:1],,,8,1,2,8-4[8:1],,,8-5-7>8-6>5-3>2-8[8:7],
1,2,8,,,{4}B2h[8:3],,4h[8:1],
{8}3xh[8:1],B1f/B2f,{32},,,,2b>3<4<5<6<7>8[4:1],1b,8b-5b[0.8974##0.2564]*-3[0.8974##0.2564],7b,6b,5b,4b,3b,2b/A8f,A7,A6,A5,A4,A3,A2,A1,{8}A8f,
,6bqq1[4:3]/4bpp1[4:3],4b/6b,{32}A2f/A8f,A3/A7,A4/A6,A5,A2f/A8f,A3/A7,A4/A6,A5,A2f/A8f,A3/A7,A4/A6,A5,A2f/A8f,A3/A7,A4/A6,A5,A2f/A8f,A3/A7,A4/A6,A5,
,,,,{8}A1f,,{32}6b,B6/E7/E6,C,B2,2bh,D2/E2,D1,D8,6b,A5/B5,A4,A3,8bh,D1/E1,D2,D3,6b,A7/B7,A8,A1,
4bh,D4/E4,D3,D2,6b,E7/E6,C,B2,2bh,E2/E3,C,B6,{8}1p5[0.2564##0.2564],5p1[0.2564##0.2564],Ch[8:1],{32},,,,2bh[#0.7692261]/3bq8[0.5128##0.2564],,,,{8}8b-3[0.5128##0.1923],
{16}3b,,,,{8}1h[8:1],{32},,,,5/1,6/2,7/3,8/4,{64}1,2,3,4,5,6,7,8,1h[8:3],2,3,4,5,6,7,8,
,2,3,4,5,6,7,8,,2,3,4,5,6,7,8,{16},,{24}4-1[8:1],5/3,3/5,4-7[8:1]*-7[8:1],3/5,5/3,4w8b[8:1],{4},{16},,,{64},{192},{32}1b/8b/E8f/E2f,
2/7/E7/E3,3/6/E6/E4,4/5/D5,1b/8b/E8f/E2f,2/7/E7/E3,3/6/E6/E4,5/D5/4-2[0.5769##0.2564],{96},,,,,,,,,,,,{24}4,5,6,4-1[8:1],,,4,5,6,4-8[8:1],,,4,
5,6,4-1-3<4-2<1-7<6-4[8:7],,,{4}B7h[1:1],{1},{4},{24}A8f/B5f/B8f/E2f/Cf/B2f/E3f/B3f/E4f/B4f/E5f/E6f/B6f/B7f/E8f/B1f/E1f/A1f/D2f/A2f/D3f/A3f/D4f/A4f/D5f/A5f/D6f/A6f/D7f/A7f/D8f/D1f/E7f,
A8f/B5f/B8f/E2f/Cf/B2f/E3f/B3f/E4f/B4f/E5f/E6f/B6f/B7f/E8f/B1f/E1f/A1f/D2f/A2f/D3f/A3f/D4f/A4f/D5f/A5f/D6f/A6f/D7f/A7f/D8f/D1f/E7f,{6}A8f/B5f/B8f/E2f/Cf/B2f/E3f/B3f/E4f/B4f/E5f/E6f/B6f/B7f/E8f/B1f/E1f/A1f/D2f/A2f/D3f/A3f/D4f/A4f/D5f/A5f/D6f/A6f/D7f/A7f/D8f/D1f/E7f,
E
