&title=YUNYUN HARDCORE
&artist=Alliance Arts inc. and まろん(IOSYS)
&first=0.057
&des_5=zenusan
&lv_5=14
&des=zenusan
&inote_5=(170){4}2?-6[8:5],,,,1b/8b,
,,E2/E8/C/E5,
{16},,,,,,E2,E8,{4}C,B5/E5/B4/E4h[4:1]/E6h[4:1],
,1v4[8:1]/7v4[8:1],1/7,{16}3q6[2:1],3xh,3xh,3xh,
{4}3xh,8<1b[8:3],{2}8,
{8}5b/4b,3-8[8:1],{16},,3-6[8:1],7,{8}7,{16}3,1,{4}1-5[8:1],
{8}1/5-3[8:1]*-2[8:1],6,{4}5,{16}7,7,{8}8,{4}1v2-4[8:3]/6v5-3[8:3],
,,7v4[8:1]/8v3[8:1],7<2[4:1]/8>5[4:1],
{8},,,6bh[8:5],{32}1,2,3,4,{16}5,{32}7,8,1,2,3,4,{16}5,{32}7,8,
{8}1b,{16}3,4,{8}3,6/5,{16}3,3,{8}4,6/5,7/4,
{16}3,4,{8}3,6/5,{16}3,3,{8}4-8[16:3],2/5,{16}1h,2h,3h,4h,
{8}B7h[4:3]/E7h[4:3]/B6h[4:3],{16}3,E3,{8}E2,{16}3,E4,{8}E5,{24}3,2x,1x,{4}8x-4[8:1],
{8}8/7,{16}6,5,6,4,5,3h[16:5],{24}4b,5,6,7,8,1,{4}2h[4:1],
{8}6x,8x/4x>8[4:1],,8V64[4:1],8,4,{4}4,
{8}3x/7x,1x/5x-7-1[4:1],,1>5[4:1],1,5,{4}5,
{8}8b/7b-3[8:1],6,5-8[8:1],4,3b/5b,2,{4}1V35[4:1],
{8}1/5,7,{4}1w5[8:1],{2}1b/Cf/B2/B8/B5/A5/A2/A8,
{16}3/5,2,{8}4,{16}7,8,{8}7h[8:1],{16}1,1,4,3,5,4,{8}6h[8:1],
{16}2,2,5,4,5,3,4,3,{24}6,5,6,5h[8:1],{48},,,,{16}8h,8h,8h,8h,
{8}1/7,1/7,{32}3,5,,,3,5,,,{8}1/7,{16}2,2,{8}4/3>8[8:1],3/4,
7,7-3[8:1],6/5,7/8,2,4/3,{16}1h,1h,1h,1h,
8b/2b,3,{8}4/5-1[8:1],6/3,5/4,{16}2,2,{8}8,7/1>4[32:3],{16}6,6-2[32:3],
{8}1,{16}8-4[32:3],6,,5,{8}8,6,6,{16}5h,5h,5h,5h,
{8}6/4-2[8:1],{16}5,5,{8}4-1[8:1],{16}6,6,4,7,7,8,8,7,7,8,
{2}8b>5[4:1],B7/B6/Cfh[2:1],
{1}1bxh[2:7],
{4},,,,,,,,,,,1x<4v3>1[4:7],
,,,,,,,,{1}7xv1v4v7[4:7],
{2},,4xqq1b[8:13],
8-5[8:1],
8-6[8:1],5-7[8:1],
{4}2v5[8:1]/8v5[8:1],2/8,{2}5x-8>5[8:9],
4-2b[8:1],8-6b[8:1],
4x-6-1-4[2:3]*-6-1-4[2:3],{8}8,8,8,8,
{4}8h[8:1],E8h[2:1],{2}E7h[4:1],
{4}6x-4-1-6[2:3]*-4-1-6[2:3],2,3h[8:1],{8}3,3,
4,4,{4}5-1[4:1],,,1bh[4:3]/B6,
B5,B4,B3,
6bh[4:3]/B2,B1,B8,B7,
2bh[4:3]/B6,B5,B4,B3,
5bh[4:3]/B2,B1,B8,B7,
{8}4b/6,5h[8:1],,5,4b/2,3h[8:1],,3,
7/1b,8h[8:1],,8,{4}2b-5[8:1]*-6[8:1],2,
{16}3,4,3,4,2,4,2,4,1,5,1,6,1,7,1,8,
{4}1>3v5[2:1],,,Cfh[4:1],
{8}1b,{16}2/8,3,{8}6/4-8[8:1],{16}3,5,{8}4,7,5/6h[2:1],{24}4,3,2,
{8}1,{24}3,2,1,{8}8-4[8:1],{16}7,1,{8}8,3-1[8:1],{16}2,4,{8}3-8[8:1],
{16}5,5,{8}3-7[8:1],{16}6,6,{8}3,4h[4:1],{24}8,1,2,{8}3h[8:1],6-8[8:1],
{16}5,5,6-2[8:1],5,,4,{8}6/4b,3b,{16}1b,1b,{8}1b,1bh[8:1],
8b,{16}7/1,6,{8}3/5-1[8:1],{16}6,4,{8}5,2h[8:1],8,{24}3/7h[2:1],4,5,
{8}6,{24}2,3,4,{8}5,{32}1,2,3,4,5,6,7,8,1<6[8:1],2,3,4,{8}6/5h[4:1],1-4[8:1]*-3[8:1],
,1,,5/6,{16}7,5,6,4,{8}3/5,{24}2v5[8:1],8,2,
{8}8v5[8:1],2,{4}8<7-5-3>2v8b[8:3],{2}B3fh[4:1],
{8}7b/1b,{16}7/1-5[8:1],6/2,{8}5/3<8[4:1],1,{4}3,{8}5,6/2<7[8:1],
{16}4,4,{8}2,{16}6,6,5,7,{24}1/8b,2,{12}3,{48},2/1b,,3,,4,,,,,{24}2b/3>8[8:1],4,5,
,,,{8}4/3-7[8:1],{16}6,6,{8}3,{32}5,4,3,2,1,8,7,6,{8}5/4,{16}2-6[8:1],1,
3,8,{8}2>5[8:1],7,2/8b,6b,{16}4b,4b,{8}4b,4bh[8:1],
6b>3[8:1],7,{4}6/8-4[8:1]*-3[8:1],8,{8}2/5,7b/1b-7<6[8:1],
,1b>6b[4:1],2b,1bh[4:1],,,,7/5,
1,6/4,2,5/3,8,4/2,7,{16}4,6,
4,6,3,7,3,7,4,6,{2}5v2b[8:1]*v8b[8:1],
{16}1h,1h,1h,1h,1h,1h,1h,1h,1h,1h,1h,1h,{32}2b,3,{16}4,1h,1h,
1h,1h,1h,1h,1h,1h,1h,1h,{32}8b,7,{16}6,1h,1h,1h,1h,1h,1h,
{32}2b,3,{16}4,1h,{32}3b,4,{16}5,1h,1h,1h,{32}8b,7,{16}6,{32}2b,3,{16}4,1h,1h,1h,1h,
{32}8b,7,{16}6,1h,{32}7b,6,{16}5,1h[32:1],1h[32:1],1h[32:1],{8}1b,2/8b,{16}7/3b,3/7b,7/3b,3/7b,
4/6-1b[8:1],4,{8}5,6/3,2,{16}8/1,8,2/8,2,2/6,6,6/4,4>1b[8:1],
{8}4b,{16}5-1b[8:1],4b,,6-8b[0.2612##0.1765],{8}5b,6b,{16}1h,1h,8/1h,8/1h,8/1h,8/1h,
{8}1b/8b,{16}3,4,{8}3,1b/8b,{32}2b/8,3,4b,5,8b/6,7,6b,5,4/1b,2,3b,4,1b/5,8,7b,6,
{4}4b-1b[4:1]/5-8[4:1],,,7s3[8:1],
,C,,,,,,,
E
