&title=Alea jacta est!
&artist=BlackY vs WAiKURO
&first=0.515
&des=Toler
&lv_5=14+
&inote_5=(162)
{48}1bxh,D2f/E2,2bxh,D3f,3bxh,D4f/E4,4bxh,D5f,5bxh,D6f/E6,6bxh,D7f,7bxh,D8f/E8,8bxh,D1f,,,,,,,,,
{16}4bx,3h[16:2],,1,2,,83,,6bx,5h[8:1],,7,8,,16,,2bx,4h[8:1],,3,25,,7,8,1bx>4b[8:1]/6,,5bx<8[8:1]/2,,1bx,,5bx,,
{16}2bx,1h[8:1],,3,4,,25,,6bx,8h[8:1],,7,5-1[8:1],,84,,5b/7b<4[8:1],,,,8pp3b[8:3],,,,4xbh[8:1],,,6xbh[8:1],,,8bx,,
{16}1xb,2h[16:2],,4,3,,52,,7b,8h[8:1],,6,5,,47,,3b,1h[8:1],,2,38,,6,5,4b>1[8:1]/7,,8b<5b[8:1]/3,,4b,,8b,,
{16}3b,4h[8:1],,2,1,,38,,7b,5h[8:1],,6,8-4[8:1]/4,,,,8b/4b>5b[8:3]/Cf,,,,,,,,Chf[16:4],,,,,,,,
{16}3b,3,4,2v3-5[8:2],,8,,7h[8:1],,,,,6,6,5,7-5-1b[4:1],,4,,2h[8:1],,,,,2,8,2,7,5,6,3,4,2b,2,1,3-5-1[4:1],,8,,7h[8:1],,,,,7,7,5,6-8-4b[4:1],,4,,3h[8:1],,,,,3,5,3,7,5,7,3,5,
{16}2b,2,1,3v2-8[8:2],,5,,6h[8:1],,,,,7,7,8,6-8-4b[4:1],,1,,3h[8:1],,,,,3,3,5,4,6,6,4,5,3b,3,4,2-4-8[4:1],,7,,7h[8:1],,,,,7,6,5,4,2bh[8:1]/3bh[8:1],,,,7bh[8:1]/6bh[8:1],,,,6b/7b,5,4,3,2b/8b>3b[8:1],7,6,5,A8f/4-8[8:1],,,,43,,,,2,1,,3,4,,25,,16,,7,8,,6,5,,7<4[8:1]/4-8[8:1],,,,4b/7b,,,,2,3,2,,14,,85,,6,7,6,,85,,14,,2,4,3,7,5,6,1-5[8:1],8,2,,A1f,,
{24}8x,7x,6x,5x,4x,3x,2xb/1xb>4[8:1],
{128},,,,
{16},,,1b-5[8:1]/8,,,,7bqq4b[4:1]/1,,,A7f,,,3,,1b<6[8:1],,,,1bpp4[8:3]/2,,,,1b/5,,,6,,,7,,8h[8:3],,,,,,4,4,1,3,8,2,7,1,6,8,5h,4,2h,3,8h,1,6h,7,5h,3,1h,2,8-4[10:1],4,6h,2z6b[2:7],8b/Cf,,,,,
{32},E2,E3,E4,,,
{8},,,,
{16}5,,,5-1[8:1],,,,,,,,,,,,,8,,,8-4[8:1],,,,,,,,,,,,,2xs6[8:1],,,,2,,,,4xw8[8:1],,,,4,,,,
{8}8x<3[6:1]/B2h[4:1]/B3h[4:1]/E3h[4:1],,,,1x>6[6:1]/B7h[4:1]/B6h[4:1]/E7h[4:1],,,,8-4[8:1],,82,,
{16}3h[8:1]/5h[8:1],,,2h[8:1]/8h[8:1],,,4/7<4[8:1],,,,3,,1h[8:1],,,3,2,7,5,6,3,4,2,1,3,8,2,7,1,6,8,5,
{16}2,3,48,7,6/1-5[8:1],2,73,6,1b/5-1b[8:1]/Cf,,,,,,,,7,8h[8:1],,4,3,,12,,8<5[8:1]/E3h[8:1],,,,8,,3,4,2h[8:1],,,1h[8:1]/7h[8:1],,,3h[8:1]/5,,6x,4x,E8h[128:1],3x,5x,E2h[128:1],7x,1x,E6h[128:1],2x,8x,E4h[128:1],8,7,6,5,3,4,2,1,5,6,4,7,2,1,3,8,4,7,5,6,3,4,3,6,5,6,E2h[16:1],,6,5,7,3,4,2,E8h[16:1],,3,4,2,6,5,7,2,1,8<5[8:1]/3,,12,,
{24}84,3,2,1,,,8-3[8:1]/4-7[8:1],,,,,,84,,,,,,
{16}12,,3,24,,6,57,,8<5[8:1]/4>1[8:1],,,,84,,,,
{32}1,2,3,4,5,6,7,8,Cf/1,,,,,,,,
{16}2-5[8:1]/4,,1,8,2,,7,,
{48}D7/2,D6,D5,D4,,,,,,D1/6,D2,D3,D4,,,,,,8,,,,,,
{16}7-4[8:1]/5,,8,1,7,,2,,
{48}2/B7/B6,3,4,5,,,,,,8/B3/B2,7,6,5,,,,,,1,,,,,,
{16}2,4,3,4,2,1,3,8,5,6,4,7,8,6,1,5,2-5[8:1]/4-8[8:1],,,,2b/4b/Cf,,,,1q6[8:1]*p4[8:1],,,,1b/Cf,,,,
{16}2,2,1,3,4,2,5,1,6,8,7,1,6,4,5,3,6,6,5,7,1,8,2,7,3,4,5,6,3,4,5,6,2,2,4,4,6,6,8,8,
{32}3x,4,8x,7,3x,4,8x,7,2x,3,7x,6,2x,3,7x-3b[1.6##0.125],6,1h[8:1]/5h[8:1],,,,,,,,
{24}1b,5,1,5,1,5,1,5,1,5,1,5,
{32}1,8,7,6,5,4,3,2,1>8[4:6]/7b/Cf,
{24},,
{16},,,,,,,,,,,,,,,,,,,,,,,,,,,,,,
{16}3h[1:1],,,,
{32}B5,E5,,,,,,,,,,,,,,,B5,E5,,,,,,,
{16}6h[1:1],,,,
{32}B4,E5,,,,,,,,,,,,,,,B4,E5,,,,,,,
{16}2>5[8:1],,,2b/6-2[8:1],,,7,,8-4[8:1],,,1/8b,,,2h[16:4],,,,4,,1-5[8:1]/5,,,,1b/7-4[8:1],,,3,,,2,,
{16}2,3,4,5<8[4:1],1,2,3,4,1,2,3,4,5,6,7,8,5,6,7,8^1^2^3^4b[4:1],5,6,7,8,A1/5,A2/6,A3/7,A4/8,1,2,3,4,
{24}1,5,1,5,1,5,1,5,1,5,1,5,1,5,1,5,1,5,1,5,1,5,1,5,1,
{96},,
{16}2hx[16:2],,4,2,4,2,3,5,4,6,5,7,1,8,2,7,5,6,5,8,4,5,4,1,3,4,3,
{24}7v5b[2.23##0.15],6,5,1v3[2.05##0.15],2,3,8h[16:14]/4h[16:14],,,,,,
{4},,,,1b/7b,4xw8[8:1],A4f,
{16}26,,
{24}3,4,5,6/2>5[8:1],,,1,,,62,7,8,1-5[8:1],,,2,,,14,,,3h[8:1],,,
{32}E1,E8,E7,E6,E5h[8:1],,,,3,2,1,8,7h[8:1],,,,
{32}D4/E4,D5,D6,D7,D8,D1,D2,D3,D4,D5,D6,D7,1bx/7x,,,,
{24}1,2,3,4/8-6-4-7[4:1],,,1,,,8/3,,,2-6[8:1],,,1,,,2,,,4h[8:1],,,
{24}7,8,1,2,3,45,6,7,8,1/3-7<6-2[4:1],,,,,,13,,,,,,8-4b[8:1],,,,,,
{16}1/8b<5[8:1]/Cf,,
{16}1,2,38,,4,,1/2-6[8:1],,83,,2-4[8:1],,
{24}1,8,7,2<7[8:1],,,7<4[8:1],6,5,2,,,,,,
{24}2,1,8,7,6,5,3/4-8[8:1],,,
{16}1/2-6b[8:1],,34,,2,,7v4[8:1],,8/3>8b[8:1],,7/4,,3,,6x/7x,,45,,23,,18,,
{32}7-3[8:1],6,5,4,8,1,2,3,7b/Cf,,,,,,,,
{16}2,1,3,6,5,7,8,4,3,5,2,1,4-8[8:1],5,8>2-5[6:1],7,4,,6,,
{24}6,7,8,1,2,3,4-8[8:1]/2-5[8:1],,,1,,,2b/4b,,,,,,
{16}6/7-4[8:1],,8,1,7,,2,,3<6[8:1]/5,,2,1,3,,8,,7h[8:1],,
{32}1,2,3,4,8-4[8:1],,,,2,3,4,5,8,,,,1,,,,2-6[8:1],3,4,5,2,1,8,7,2b/Cf,,,,,,,,,,,,
{16}7,7,5,6,3,4,2,1,3,8,5,7,8,6,2,4,3,1,
{48}8b/5,7,6,5,,,,,,1b/4,2,3,4,,,,,,8b,,,,,,
{16}6h[16:1]/4h[16:1],,1h[16:1]/2h[16:1],,3h[16:1]/5h[16:1],,8h[16:1]/7h[16:1],,
{32}16,5,4,3,2,1,8,7,
{256}6xqq3[16:6],2xqq7b[16:6],
{32}3,4,5,6,7,8,1,26,,,,,,,,,,,,,,,,,
{48}1bxh/5xh[4:1],D2f/E2,2bxh,D3f,3bxh,D4f/E4,4bxh,D5f,,D6f/E6,6bxh,D7f,7bxh,D8f/E8,8bxh,D1f,,,,,,,,,
{16}4bx,3h[16:2],,1,2,,83,,6bx,5h[8:1],,7,8,,16,,2bx,4h[8:1],,3,25,,7,8,1bx>4b[8:1]/6,,5bx<8[8:1]/2,,1bx,,5bx,,
{16}2bx,1h[8:1],,3,4,,25,,6bx,8h[8:1],,7,5-1[8:1],,84,,5b/7b<4[8:1],,,,
{32}8pp3b[8:3]/7,1,2,3,,,,,
{16}4xbh[8:1],,,6xbh[8:1],,,8bx,,
{16}1xb,2h[16:2],,4,3,,52,,7b,8h[8:1],,6,5,,47,,3b,1h[8:1],,2,38,,6,5,4b>1[8:1]/7,,8b<5b[8:1]/3,,4b,,8b,,
{16}3,4,2,8,4,6,3,5,1,8,4,6,3,5,2,7,
{24}1,2,3,5,6,7,2,3,4,6,7,8,
{32}E3,E4,E5,E6,E7,E8,E1,E2,6,5,4,3,2,1,8,7,2x/6x,,2x/6x,,,,
{16}34,,56,,3v8[10:1]/7-4[10:1],,8,,37,,1x/5x,1x-3-5[8:1]/5x-7-1[8:1],1x/5x,,,
{256}1bxp7[8:13],5bxp3b[8:13],
E
