&title=slic.hertz
&artist=Sobrem
&first=0.22
&des=AonlyZ
&lv_5=14
&des_5=AonlyZ
&inote_5=
(145){4},{32}4x/Cf,3x,{16}2x<1-4>3-8[16:9],,,,,,,,,,,,,,,7,
8,,7,8,7,{8}8,1,1,
{16}1,1,{8}7b,{32}4x,3x,{16}2x<1-5>4v6>5[16:9],,,,,,,,,,,,,,,6,
5,,6,5,6,{8}5,{16}4,4,,4,
,4,{8}5b,{16}A6,E6,E5,E4,{8}A3,C,7,6,
5,5,{16}6,3,5,3,6,6,{8}6-8[16:1],1,{16}6,4,
,6,3,5,1,1,{8}1,{16}8,8,{8}8,{16}2,3,7,6,
{8}4-1>2-5b[8:5],5b-8>1-6[2:1],,,,,{4}C,
{8}Cf,{16}1,8,{8}2x-6>5[8:1],5/6,2x,{32}8x,B8,C,B4,{8}1,{16}7,6,
{8}5xh[8:1],{16}7x,6,{8}5h[8:1],3b,{16},,3,5,{8}4,B4,
C,{16}7,1,{8}8x-4<5[8:1],5/4,8x,{24}3x,2,1,{8}8h[8:1],{24}3,2,1,
{8}8xh[8:1],5b,,Cf,{16},,,,,4b/8b,{8}5b/1b,
{16}5b/1b,8b/4b,,,{8}7/1x-5[8:1],3/5>2[8:1],1x,{16}8x,7,6,5,2x,3x,
{8}4x,Cf,{16},,8x,7,8,7,1,7,8,6,8,7,
1,7x,{24}8x,7x,6x,5x/4x,3x,2x,1x,{48},{16}8x,{8}8x,{24}1x,8x,1x,8x,1x,8x,1,,,{4}5b,
{16}1,8,2,7,3,6,,5-1b[16:1],4,6,,5,
,8b,{8}8b,2h[16:3],1h[8:3],{16}8,7,6-2[8:1],5,{8}4,6x/4>1[32:3],
{32},,,,4x/5,6,7,8h[32:5],,,,,{8}5h[8:1],{16}7,6,{8}5h[16:1],{16}3/4h[16:1],,,4/5,
,6/5h[16:1],,,{8}7h[16:3],1h[8:3],{16}2,3,4-8[8:1],5,{8}6x,4x<7[32:3],
6x,{32}4x/1,2,3,4h[32:5],,,{16}6h[16:1],,,{4}4h[16:1]/5h[8:1],{16}2,6,3,5,
4,4,4,4,{8}4h[8:1],6h[8:3],{16}7,8,1-5[8:1],2,{8}3h[16:3],1x<6[32:3],
{32},,,,2/1x,3,4,5h[32:5],,,,,,,,,{16}7,6,7,8,7,1,7,2h[16:1],
,,{8}3/4h[16:1],3h[8:1],5h[8:3],{16}6,7,8-4[8:1],1,{8}2x,8x>3[32:3],
2x,{32}8x/5,6,7,8h[32:5],,,,,{8}4,{16}3,7,3h[8:1],7h[16:1],,,4b/8b,5b/1b,
,1b/5b,{8}8b/4b,{16},,7/3,2/6,{8}5/1h[4:1],7h[4:1],,4h[4:1],
,6h[16:3],{32}8x,1,2,3,{16}4h[16:3],8xh[8:1],{32},,,,7x,6,5,4,{4}8x/3x,
{8}2/6,B4,{16}5,3,6,2,7,1,{8}8h[4:1],{16},,1,2,
{8}3h[4:1],{16}5,6,{8}7,{32}3x/7x,E4/E8,B4/B8,B5/B1,{8}E6/E2,{32}5x/1x,E1/E5,B8/B4,B7/B3,{8}E7/E3,Cfh[8:1],
B7/B6/B2/B3,{16},,,,2/6,7/3,{8}4/8>3[8:1],1,8/4<7[8:1],5,
4/8>3[8:1],1,8/4<8[4:1],5-2>4[4:1],{2}4/8-5[8:1],
{16},,6,7,{8}8,1h[8:1],8h[8:1],{16}1h[16:1],8h[8:1],,1h[16:1],8h[16:1],1h[16:1],
8h[16:1],1h[16:1],{8}8h[8:1],1h[8:1],{16}8h[16:1],1h[16:1],{8}8h[8:1],1h[8:1],{16}8h[16:1],1h[8:1],,8bh,
,,{8}C,{16},,,,7h[4:1]/E2,B1,B8,B7,{8}B6,5h[16:1],
4h[24:1],{16}2h[#0.4137917]/B4,B3,B2,B1,B8,7x,6x,5,4,3,{8}2,{16}3,4,
5,6,{8}7,3,{32}6,5,6,5,,,,,{8}8/7,1,{32}3,4,3,4,
,,,,{8}4,{16}5/6,5/7,{8}5/8,{16}4/3,4/2,{8}4/1,{16}6/2,3/7,8/4,5/1,
2/6,3,4,5,{4}6bx/B1/E2/E3/B3/B2f/A2,{16},,,,4bx/E1/A8/E8/B7/B1/B8f,,,7bx/B3/B4/B2/B5/A4/A3/E4f,
,,{8}2bx/B7/E7/A6/E6/B5/B6f,,,{4}4x/6x,{16}2bx/B7/E7/E6/A6/A5/B6f,,,8bx/E4/A3/E3/B4/A4/D4/B3f,
,,{8}A1/E1/B8/E2/D1/A8/B1f/5bx>5[8:5]*q5[8:3],{16},,,,,,,,,,,,,,,,5<6-3-7-2<1[8:5],
5z1[16:9],,,,,,,,,,,,,,,{4}6>3<5[4:1],
{8}6q2[8:1],2-5[8:1],,,8,
5w1[8:1],,5-8<6[4:1],{16},,,,,,,,6x/2h[2:1],
5x,6x,5x,6x,5x,6x,5x,{8}6xh[24:7],2x,{24}3,4x,5x,2x,3x,4x,
{8}1x/5x-3-6-2-7-1[8:3],1x,{4}1x,{16}1x-5[8:1],,,,,2b,{8}3b,
{16}3b/7b,4b/8b,,,{4}1>4>2[4:1],{8}1p5[8:1],5p1[8:1],,,7,
8<5[8:1],,8,{16}3,3,6,6,4,4,5-1[16:1],5,
6,6,{8}5,{16}B2,B8,B4,B6,{4}Ch[4:1],{32}7x,6xh[32:7],,,,,,,2x,
3xh[16:3]/7xh[16:3],,,,,,,{4}6x/2x,{16}7,8,6,4,8-4[8:1],2,5-2[8:1],3,
{8}8,{16}5,8,{8}8-6[8:1],1-5-1[4:1],8x,1x>4>1[3:1]*<6<1[3:1],,,,,,6h[24:19]/B1/B2,
{16}3x,4x,,3x,4x,3x,4x,3x,
{8}4x,{24}4x,3x,2x,{8}1xh[4:1],{24}8x,7x,6x,{16}5x,4x,5,4,6,3,4,2,
5,4,7,5,8,1h[8:1],{32}7,6,{16}5,1,8h[8:1],{32}2,3,{16}4,8,1,6,3,
7,2,5,4,{8}6-2[8:1]/3-7v5[4:1],2v4[8:1],,,,,5-8[8:1],
7/3,{4}5h[4:1],{16}1,2,8,7,2,3,7,6,
3,4,{8}5,,,{4}Ch[4:1]/8<5[8:1],B1/B2/E2,
{32}4x,5x,4x,5x,4x,5x,{16}4x,6x,3,{32}5x/4,3x,2x,1,8x,7x,6x,5x/4,3x,2,{16}1/8h[16:3],,4b,{8}4b,
{16}8b,4b,{8}8b,4h[8:1],8h[16:3],{16}5,6,7,8,{8}1/5,3/4<7[32:3],
{32},,,,4/3,2,1,8h[32:5],,,,,{8}4h[8:1],{16}1,2,{8}3h[16:1],{16}6/5h[16:1],,,5/4,
,3/4h[16:1],,,{8}3h[16:3],5h[8:3],{16}6,7,8-4[8:1],1,{8}2x,8x>3[32:3],
2x,{32}8x/5,6,7,8h[32:5],,,{16}2h[16:1],,,{4}8h[16:1]/1h[8:1],{16}6,2,7,1,
8,8,8,8,{8}8h[8:1],2h[8:3],{16}3,4,5-1[8:1],6,{8}7h[16:3],5x>2[32:3],
{32},,,,6/5x,7,8,1h[32:5],,,,,,,,,{16}3,1,3,4,3,5,3,6h[16:1],
,,{8}7/8h[16:1],7h[8:1],1h[8:3],{16}2,3,4-8[8:1],5,{8}6x,4x<7[32:3],
6x,{32}4x/1,2,3,4h[32:5],,,,,{8}8,{16}7,3,7h[8:1],3h[16:1],,,8b/4b,1b/5b,
,5b/1b,{8}4b/8b,{16},,3,2,{8}1h[8:1],7h[8:1],5h[8:1],4pp6[8:1],
2,4>1[8:1],3,4-8[8:1],6,4,3,{16}7,7,
{8}5h[8:1],4h[8:1],3h[4:1],{16}6,7,8,1,2s6[8:1],3,4,5,{8}6,
,1-6[16:1],,1-4[16:1],2,1-6-8[16:3],8,1,
5bxh[8:3],{16},,,,1,2,{8}3h[8:1],4h[8:1],6h[8:1],8h[8:1],
3h[8:1],5h[8:1],7h[8:1],1h[8:1],2h[8:1],4h[4:1],{4}6h[4:1],
{16},,4,5,{8}3/4,5/1,6/5,4/8,{16}3,5,2,6,
1,7,{8}8h[8:1],7,{16}8/7,6/1,{8}2/5,{16}1/2,3/8,4/7,6/5,,Cf,
,,{8}5qq1<8b[4:3],,,,,,,,,6,
{16}3,5,{8}2,4,{16}1,7,,4,
,,{8}B6,
E
