&title=ゆら・ゆらRing-Dong-Dance
&artist=Pastel*Palettes
&first=0.5
&des=白明星琉姬
&des_1=白明星琉姬
&des_2=白明星琉姬
&des_3=白明星琉姬
&des_4=白明星琉姬
&des_5=白明星琉姬
&des_6=白明星琉姬
&des_7=白明星琉姬
&lv_5=13
&inote_5=(172)
{8}2,2h[4:2],,4,4h[4:2],,3,3h[4:2],,5,5h[4:2],,4,,4,,
5h[8:1]/7h[4:1],,,4h[8:1]/6h[4:1],,,3h[8:1]/5h[4:1],,,2h[8:1]/4h[4:1],,,1h[4:1]/3-6[8:1],,,,
7/5h[4:1],7,,4/6h[4:1],4,,5/3h[4:1],5,,2/4h[8:5],2,,1b,,1b,,
2/8h[8:3],2,2h[8:1],,7/3h[4:1],7h[8:1],,6bv1[8:1]/4b-1[8:1],,,,{16}7/8,,6-1[8:1]/1v4[8:1],,,,6b/1b,,,,
{8}5,2hx[4:1],,6,3hx[4:1],,7,4hx[4:1],,8,5hx[4:1],,7-3x[8:1],,7x,,
2/8,2hx[8:1]/8hx[8:1],,3/1,3hx[8:1]/1hx[8:1],,4/2,4hx[8:1]/2hx[8:1],,5/3,5hx[8:1]/3hx[8:1],,6-3x[8:1]/4-1x[8:1],,6x/4x,,
8/7h[8:1],8x,7,6/1h[8:1],6x,1,2/5h[8:1],2x,5,3h[8:1]/4,4x,3,2>5x[8:1]/4-8x[8:1],,2x/4x,,
7hx[8:1],5,4/6,{16}3x,4,{8}2h[8:1],8,1/7,2b-5[8:1]/6b-1[8:1],,2/6,,4/8,3-8[8:1]/7-4[8:1],,3b/7b,,
1-5>2[4:4]/5,,,6,,7,,8h[8:7],,,,,,1,1,,8h[8:3],,7,7h[4:1],,6h[8:9],,5-7-1-3[8:3],,,,,,,4,,
3,4,5,6,,3,4,5<3[4:2],,,,,,4,4h[4:1],,6h[8:3],,8,8h[4:1],,2h[4:1],,4w8b[8:1],,,,,1,1,2b/8b,,
3h[8:1]/7h[8:1],,4/6,3/5,3h[8:1]/5h[8:1],,2/6,1/7,1h[8:1]/7-4[8:1]*-4[8:1],,1h[8:1]/7,,2-5[8:1]*-5[8:1]/8h[8:1],,2/8h[8:1],,
3/7,3/6,4/5,3/5,2-7[8:1]/6-3[8:1],,2/6,,8>3[8:1]/4<7[8:1],,4/8,,5/6,5/6,4b/7b,,
2h[8:1]/6h[8:1],,3/5,4/6,4h[8:1]/6h[8:1],,4/6,3/7,2/8,1/8,2-4[8:1]/7-1[8:1],,2-6[8:1]/7,,2/8-4x[8:1],,
8/4,,3,2-4[8:1]/5-1[8:1],,2-6[8:1]/5,,2b/8b,,{16}5,4,3h[8:1],,8,7,6h[8:1],,{8}4,3/5,2,
1-4-2-6[8:3],4h[4:3],,,,,,8-4-6-2[8:3],5h[4:3],8,,,,,1,,
8-4-6-3-7b[8:4]/4,8/4h[8:5],,,,,,8/2,8-3-6-4-7b[8:4]/2,8/2h[8:5],,,,,,,
{4}1-3-5-3-1[4:5],5,6,7,8,7,6,5,4-6-8-6-4[4:5]/2,8,1,2,3,2,{16}1,,,2/8,,,2/8,,
3b/7bh[4:1],,,,4,3,2,1,7,6,5,4,1,2,3,4,8,7,6,5,1,2,3,4,1,8,7,6,1b/5b,,,,
{8}2-6[8:1]/6,3,2b/7b,,8-4[8:1]/4,1,8b/3b,,1-5[8:1]/5-1[8:1],2/6,1b/5b,,3-7[8:1]/7-3[8:1],2/6,3b/7b,,
4>1[4:1],,1<6[4:1],,6,,5pp5[4:1]*qq5[4:1],5b,,,,,7/3,{16}4-8[8:1],5,3,,4b/6b,,
{8},7/1,6/2,5/3h[8:1],6,{16}7-3[8:1],8,{8}6,7b/1b,,8/2,7/3,6/4h[8:1],5,6/2,7b-4[8:1]/1b,,
7/1>4[8:1],,1<6[8:1],5,1-5[8:1],5-2b[8:1],1,6b,6,7,8<5[8:1],8,4,{16}4x,3x,{8}2-6x[8:1],,
5b-8[8:1],4,1<6[8:1],2,3x/1x,{16}4bx,3bx,{8}2b-8x[8:1]b,,2b-4x[8:1]b,,2b-6x[8:1]b,6b-4x[8:1]b,2,1x,8x,7x,
6b-4x[8:1],7,2-6[8:1]b,1bx,8b-4x[8:1],7,4,3bx,3,2x/6x,2x/6x,1x/7x,{16}1-5x[8:1]b/7x,8,{8}2,1bx/7bhx[4:1],,
4-1[8:1],7,4,{16}6,6,{8}2-5[8:1],5,2,6,7,4<8<4[4:2]b/8,3/6,2bh[4:2]/4b,,,,,
1>4[8:1],,1<6[8:1],,1-5-3[4:1],,1,8bx,,7bx/2hx[8:1],7bx,3,6bx,4/5,5bw1x[8:1],,
{4}5>8[4:2],,7,{8}6,6,{4}5>8[4:2]*>8[4:2],A8/B8,A7/B7,A6/B6,5>2[8:1]b,{32}1bx,8x,7x,6x,{8},{16}1bx/8bx,,,5bx/7bx,,,4bx/5bx,,{4}4bq8[8:1]/5b<7[8:1],5bp1[8:1]/4b>2[8:1],5bp4[8:3]/4b>5[8:3],,
,{8}1,1,2/8,2/8,3/7,3/7,{16}4,3,2,1,7,6,5,4,8,1,2,3,7b/4b,,,,
{8}5x,2hx[4:1],B4,6x,3hx[4:1],B5,7x,4hx[4:1],B6,8x,5hx[4:1],B7,7-3x[8:1],,7x,,
2x/8x,2x/8hx[8:1],B1/B2,3x/1x,3x/1hx[8:1],B2/B3,4x/2x,4x/2hx[8:1],B4/B5,5x/3x,5x/3hx[8:1],B5/B6,6-3x[8:1]/4-1x[8:1],,6x/4x,,
2x,B2/B1/5x,B5,3x,B3/B2/6x,B6,4x,B4/B3/7x,B7,5x,B5/B4/6x,B6,6bw2x[8:1]b,,6bx,,
8/4h[8:3],8,8h[16:3],,5/7h[16:5],5h[8:1],,6bv1x[8:1]/4b-1x[8:1],,,,{16}7,8,5<8[8:1]/1>4[8:1],,,,5b-2[8:1]b/1b-6[8:1]b,,,,
{4}1b-6<1[4:2]b/5b-2>5[4:2]b,,,,
E
