&title=Suomi
&artist=Aire
&first=0.42
&lv_6=13+
&des_6=OnePeach
&inote_6=
(125){4},,,,{48}A1/5b<3b[4:3],
B1,C,B5,{4},,,{16},,{24},{1}4<2[4:3],
3<1[4:3],
2>5b[8:3],
{48}A8/4bq5b[4:3],B8,C,B4,{4},,,{16},,{24},{1}6q7[4:3],
8q1[4:3],
2>5b[8:3],
{48}5h[8:1]/A1,B1,C,B5,,,,,,,,,,,,,,,6h[8:1]/A1,E2,E3,A3,,,,,,,,,7h[8:1]/A1,B1,C,B5,,,,,,{16}A1h[16:1],{48},,,,,,3h[8:1]/A8,
E8,E7,A6,,,,,,,,,,,,,,,4h[8:1]/A8,B8,C,B4,,,,,,,,,3h[8:1]/A8,E8,E7,A6,,,,,,{16}A8h[16:1],{48},,,,,,6h[8:1]/A1,
E2,E3,A3,,,,,,,,,,,,,,,4h[8:1]/A1,E1,E8,A7,,,,,,,,,6h[8:1]/A1,E2,E3,A3,,,,,,{16}A1h[16:1],{48},,,,,,3h[8:1]/A8,
E8,E7,A6,,,,,,,,,,,,,,,5h[8:1]/A8,E1,E2,A2,,,,,,,,,A8/Cfh[8:1],E8,E7,A6,,,,,,,,,,,,,,,5h[16:1]/A1,
E2,E3,A3h[16:1],,,,,,,,,6h[16:1]/A1,B1,C,B5h[16:1],,,,,,,,,7h[16:1]/A1,E2,E3,A3h[16:1],,,,,,,,,8h[16:1]/A1,B1,C,B5h[16:1],,,,,,,,,1h[16:1]/A8,
E8,E7,A6h[16:1],,,,,,,,,2h[16:1]/A8,B8,C,B4h[16:1],,,,,,,,,3h[16:1]/A8,E8,E7,A6h[16:1],,,,,,,,,4h[16:1]/A8,B8,C,B4h[16:1],,,,,,,,,{8}7h[16:1],
2h[16:1],5h[16:1],4h[16:1],{16}7h[16:1],2h[16:1],6h[16:1],3h[16:1],5h[16:1],4h[16:1],7h[16:1],2h[16:1],
{4}8b<5b[16:1],2q3b[8:1],7>6b[8:1],7p6[8:1],
{48}3<6[16:1],B3,B2,B1,,,,,,,,,{4}7p6[8:1],3<6[16:1],7p6[8:1],
3<6[16:1],7>2[16:1],3<2[8:1],7p6[8:1],
2>5[16:1],6p5[8:1],1>4[16:1],5p4[8:1],
8>3[16:1],6>3[16:1],8>6[8:1],7p6[8:1],
2>5[16:1],7p6[8:1],2>5[16:1],7p6[8:1],
2>5[16:1],8<5[16:1],2<3[8:1],8p7[8:1],
1>4[16:1],1p8[8:1],2>5[16:1],2p1[8:1],
3<6[16:1],3p2[8:1],A3/7x>6[8:1],A7/2xq3[8:1],
{48}6>3[16:1],B6,B7,B8,,,,,,,,,{4}2q3[8:1],6>3[16:1],2q3[8:1],
6>3[16:1],2<7[16:1],6>7[8:1],2q3[8:1],
7<4[16:1],3q4[8:1],8<5[16:1],4q5[8:1],
1<6[16:1],3<6[16:1],1<3[8:1],2q3[8:1],
7<4[16:1],2q3[8:1],7<4[16:1],2q3[8:1],
7<4[16:1],1>4[16:1],7>6[8:1],1q2[8:1],
8<5[16:1],8q1[8:1],7<4[16:1],7q8[8:1],
6>3[16:1],6q7[8:1],A6,Cfh[4:1],
{8}B5/B6/B3/B4/E5/E6/E4,,,E1,,E3,{16},B5h[16:3],,,{8}7pp6b[8:5],
,,E1,,E3,{16},Ch[16:3],,,{8}5pp4[8:5],
,,E1,,E3,{16},B5h[16:3],,,{8}3>4[8:5],
,,E1,,E3,{16},Ch[16:3],{48},,,,,,A8,
B8,,B4,A4,,,,,,,,,,,,,,{8}E1,,B6,{16},B2h[16:3],,,{8}6q2q6b[8:5],
,,E2,,B7,{16},B3h[16:3],,,{8}7q3q7[8:5],
,,E3,,B8,{16},B4h[16:3],,,{8}8>7[8:5],
,,E4,,E1,{16},Ch[16:3],{48},,,,,,A8,
B8,,B4,A4,,,,,,,,,,,,,,2h[8:1]/A6,E6,E5,A4,,,,,,,,,3h[8:1]/A7,B7,C,B3,,,,,,{16}A7h[16:1],{48},,,,,,8h[8:1]/A1,
B1,C,B5,{12}A5,{48},,,,,,,,,,7h[8:1]/A3,E4,E5,A5,,,,,,,,,6h[8:1]/A2,B2,C,B6,,,,,,{16}A2h[16:1],{48},,,,,,1h[8:1]/A8,
B8,C,B4,{12}A4,{48},,,,,,,,,,2h[8:1]/A6,E6,E5,A4,,,,,,,,,4h[8:1]/A8,E1,E2,A2,,,,,,{16}A8h[16:1],{48},,,,,,7h[8:1]/A1,
B1,C,B5,{12}A5,{48},,,,,,,,,,6h[8:1]/A3,E4,E5,A5,,,,,,,,,A1/E5fh[8:1],E1,E8,A7,,,,,,,,,,,,,,,1h[16:1]/A6,
E6,E5,A4h[16:1],,,,,,,,,2h[16:1]/A7,B7,C,B3h[16:1],,,,,,,,,3h[16:1]/A8,E1,E2,A2h[16:1],,,,,,,,,4h[16:1]/A8,B8,C,B4h[16:1],,,,,,,,,5h[16:1]/A1,
B1,C,B5h[16:1],,,,,,,,,6h[16:1]/A1,E1,E8,A7h[16:1],,,,,,,,,7h[16:1]/A2,B2,C,B6h[16:1],,,,,,,,,8h[16:1]/A3,E4,E5,A5h[16:1],,,,,,,,,{8}6h[16:1],
3h[16:1],8h[16:1],1h[16:1],{16}6h[16:1],3h[16:1],7h[16:1],2h[16:1],8h[16:1],1h[16:1],6h[16:1],3h[16:1],
{4}5b<8b[16:1],4qq5b[8:1],6>7b[8:1],6pp5[8:1],
{48}3<2[8:1],B1,E1,A8,,,,,,,,,{4}6pp5[8:1],3<2[8:1],6pp5[8:1],
3<1[8:1],7p3p7[8:1],3<1[8:1],6pp5[8:1],
2>8[8:1],5pp4[8:1],1>7[8:1],4pp3[8:1],
8>6[8:1],6p2p6[8:1],8>6[8:1],6pp5[8:1],
2>1[8:1],6pp5[8:1],2>1[8:1],6pp5[8:1],
2>1[8:1],8p4p8[8:1],2q6q2[8:1],7pp6[8:1],
1>7[8:1],1pp8[8:1],2>8[8:1],2pp1[8:1],
3<1[8:1],3pp2[8:1],A3/7xp3p7[8:1],A7/3xqq4[8:1],
{48}6>7[8:1],B8,E1,A1,,,,,,,,,{4}3qq4[8:1],6>7[8:1],3qq4[8:1],
6>7[8:1],2q6q2[8:1],6>8[8:1],3qq4[8:1],
7<1[8:1],4qq5[8:1],8<2[8:1],5qq6[8:1],
1<3[8:1],3q7q3[8:1],1<3[8:1],3qq4[8:1],
7<8[8:1],3qq4[8:1],7<8[8:1],3qq4[8:1],
7<8[8:1],1q5q1[8:1],7p3p7[8:1],2qq3[8:1],
8<2[8:1],8qq1[8:1],7<1[8:1],7qq8[8:1],
6>8[8:1],6qq7[8:1],A6,Cfh[4:1],
{48}8>7[4:3],B8,,B4,A4,
E
&lv_7=藏13+
&des_7=OnePeach
&inote_7=
(125){4},,,,{48}A1/5b<3b[4:3],
B1,C,B5,{4},,,{16},,{24},{1}4<2[4:3],
3<1[4:3],
2>5b[8:3],
{48}A8/4bq5b[4:3],B8,C,B4,{4},,,{16},,{24},{1}6q7[4:3],
8q1[4:3],
2>5b[8:3],
{48}5h[8:1]/A1,B1,C,B5,,,,,,,,,,,,,,,6h[8:1]/A1,E2,E3,A3,,,,,,,,,7h[8:1]/A1,B1,C,B5,,,,,,{16}A1h[16:1],{48},,,,,,3h[8:1]/A8,
E8,E7,A6,,,,,,,,,,,,,,,4h[8:1]/A8,B8,C,B4,,,,,,,,,3h[8:1]/A8,E8,E7,A6,,,,,,{16}A8h[16:1],{48},,,,,,6h[8:1]/A1,
E2,E3,A3,,,,,,,,,,,,,,,4h[8:1]/A1,E1,E8,A7,,,,,,,,,6h[8:1]/A1,E2,E3,A3,,,,,,{16}A1h[16:1],{48},,,,,,3h[8:1]/A8,
E8,E7,A6,,,,,,,,,,,,,,,5h[8:1]/A8,E1,E2,A2,,,,,,,,,A8/Cfh[8:1],E8,E7,A6,,,,,,,,,,,,,,,5h[16:1]/A1,
E2,E3,A3h[16:1],,,,,,,,,6h[16:1]/A1,B1,C,B5h[16:1],,,,,,,,,7h[16:1]/A1,E2,E3,A3h[16:1],,,,,,,,,8h[16:1]/A1,B1,C,B5h[16:1],,,,,,,,,1h[16:1]/A8,
E8,E7,A6h[16:1],,,,,,,,,2h[16:1]/A8,B8,C,B4h[16:1],,,,,,,,,3h[16:1]/A8,E8,E7,A6h[16:1],,,,,,,,,4h[16:1]/A8,B8,C,B4h[16:1],,,,,,,,,{8}7h[16:1],
2h[16:1],5h[16:1],4h[16:1],{16}7h[16:1],2h[16:1],6h[16:1],3h[16:1],5h[16:1],4h[16:1],7h[16:1],2h[16:1],
{4}8b<5b[16:1],2q3b[8:1],7>6b[8:1],7p6[8:1],
{48}3<6[16:1],B3,B2,B1,,,,,,,,,{4}7p6[8:1],3<6[16:1],7p6[8:1],
3<6[16:1],7>2[16:1],3<2[8:1],7p6[8:1],
2>5[16:1],6p5[8:1],1>4[16:1],5p4[8:1],
8>3[16:1],6>3[16:1],8>6[8:1],7p6[8:1],
2>5[16:1],7p6[8:1],2>5[16:1],7p6[8:1],
2>5[16:1],8<5[16:1],2<3[8:1],8p7[8:1],
1>4[16:1],1p8[8:1],2>5[16:1],2p1[8:1],
3<6[16:1],3p2[8:1],A3/7x>6[8:1],A7/2xq3[8:1],
{48}6>3[16:1],B6,B7,B8,,,,,,,,,{4}2q3[8:1],6>3[16:1],2q3[8:1],
6>3[16:1],2<7[16:1],6>7[8:1],2q3[8:1],
7<4[16:1],3q4[8:1],8<5[16:1],4q5[8:1],
1<6[16:1],3<6[16:1],1<3[8:1],2q3[8:1],
7<4[16:1],2q3[8:1],7<4[16:1],2q3[8:1],
7<4[16:1],1>4[16:1],7>6[8:1],1q2[8:1],
8<5[16:1],8q1[8:1],7<4[16:1],7q8[8:1],
6>3[16:1],6q7[8:1],A6,Cfh[4:1],
{8}B5/B6/B3/B4/E5/E6/E4,,,E1,,E3,{16},B5h[16:3],,,{8}7pp6b[8:5],
,,E1,,E3,{16},Ch[16:3],,,{8}5pp4[8:5],
,,E1,,E3,{16},B5h[16:3],,,{8}3>4[8:5],
,,E1,,E3,{16},Ch[16:3],{48},,,,,,A8,
B8,,B4,A4,,,,,,,,,,,,,,{8}E1,,B6,{16},B2h[16:3],,,{8}6q2q6b[8:5],
,,E2,,B7,{16},B3h[16:3],,,{8}7q3q7[8:5],
,,E3,,B8,{16},B4h[16:3],,,{8}8>7[8:5],
,,E4,,E1,{16},Ch[16:3],{48},,,,,,A8,
B8,,B4,A4,,,,,,,,,,,,,,2h[8:1]/A6,E6,E5,A4,,,,,,,,,3h[8:1]/A7,B7,C,B3,,,,,,{16}A7h[16:1],{48},,,,,,8h[8:1]/A1,
B1,C,B5,{12}A5,{48},,,,,,,,,,7h[8:1]/A3,E4,E5,A5,,,,,,,,,6h[8:1]/A2,B2,C,B6,,,,,,{16}A2h[16:1],{48},,,,,,1h[8:1]/A8,
B8,C,B4,{12}A4,{48},,,,,,,,,,2h[8:1]/A6,E6,E5,A4,,,,,,,,,4h[8:1]/A8,E1,E2,A2,,,,,,{16}A8h[16:1],{48},,,,,,7h[8:1]/A1,
B1,C,B5,{12}A5,{48},,,,,,,,,,6h[8:1]/A3,E4,E5,A5,,,,,,,,,A1/E5fh[8:1],E1,E8,A7,,,,,,,,,,,,,,,1h[16:1]/A6,
E6,E5,A4h[16:1],,,,,,,,,2h[16:1]/A7,B7,C,B3h[16:1],,,,,,,,,3h[16:1]/A8,E1,E2,A2h[16:1],,,,,,,,,4h[16:1]/A8,B8,C,B4h[16:1],,,,,,,,,5h[16:1]/A1,
B1,C,B5h[16:1],,,,,,,,,6h[16:1]/A1,E1,E8,A7h[16:1],,,,,,,,,7h[16:1]/A2,B2,C,B6h[16:1],,,,,,,,,8h[16:1]/A3,E4,E5,A5h[16:1],,,,,,,,,{8}6h[16:1],
3h[16:1],8h[16:1],1h[16:1],{16}6h[16:1],3h[16:1],7h[16:1],2h[16:1],8h[16:1],1h[16:1],6h[16:1],3h[16:1],
{4}5b<8b[16:1],4qq5b[8:1],6>7b[8:1],2qq3[8:1],
{48}6>7[8:1],B7,E8,A8,,,,,,,,,{4}2qq3[8:1],6>7[8:1],2<3[8:1],
6pp5[8:1],2<3[8:1],7p3p7[8:1],2>1[8:1],
7<8[8:1],3qq4[8:1],6>7[8:1],2qq3[8:1],
4>5[8:1],1q5q1[8:1],7>6[8:1],2qq3[8:1],
7<8[8:1],2qq3[8:1],7<8[8:1],2>1[8:1],
7pp6[8:1],2>1[8:1],8p4p8[8:1],2>1[8:1],
1<2[8:1],2qq3[8:1],2<3[8:1],3qq4[8:1],
3>4[8:1],4qq5[8:1],A4/6x>7[8:1],6xpp5[8:1],
{48}2>1[8:1],B1,E1,A8,,,,,,,,,{4}6pp5[8:1],2>1[8:1],6<5[8:1],
2qq3[8:1],6<5[8:1],1q5q1[8:1],6>7[8:1],
2>1[8:1],6pp5[8:1],3<2[8:1],7pp6[8:1],
5<4[8:1],8p4p8[8:1],2<3[8:1],7pp6[8:1],
2>1[8:1],7pp6[8:1],2>1[8:1],7<8[8:1],
2qq3[8:1],7<8[8:1],1q5q1[8:1],7<8[8:1],
8>7[8:1],7pp6[8:1],7>6[8:1],6pp5[8:1],
6<5[8:1],5pp4[8:1],A5,Cfh[4:1],
{48}8>7[4:3],B8,,B4,A4,
E
