&title=Colorful Universe
&artist=Laur
&first=2.589998
&des=Hurricane
&des_5=
&lv_5=14
&inote_5=(162){4},{1},,,,{4},,,{1}1V35v2[2:1],
{32}8,7,6,1,2,3,7,6,{4}5-1[8:1],{16}5b,{8},{32}2b,3,{8}4,{32}8b-4[8:1],7,{16}6,
{32}4bV61[4:1],3,{16}2,{4},,{8},{32}2,3,4,5,8,7,6,5,
{8}2v8[8:1],{4},{8}7<4[8:1],,{32}7,8,1,2,{4}3V57-4-2[4:3],
{1}3/Ch[4:3],
{32}1,2,3,8,7,6,2,3,{4}4-8[8:1],{16}4b,{8},{32}7b,6,{8}5,{32}1b-5[8:1],2,{16}3,
{32}5b-3-8[4:1],6,{16}7,{4},,{8},{32}7v4-6-1[4:3],6,5,4,1,2,3,4,
{1}7,
{8}2pp5[4:3],{4},{8}B6,{4}B8,6pp1[4:3],
{1}6,
{8}8pp6[4:3],{4},{8}B4,{4}B5,{8}2pp5[4:3],2,
{4},B7,{2},{8}4qq1[4:3],
{4},{8}B8,{4}B6,6qq3[4:3],
6,{2},{8}1qq4[2:1],1,
1,{2},{8}5,5-8[4:1],5,
{2},{8}8,8,{4},{16}7,
7,5,5,{8}7,4/6,5/3,2/4,{4}1,
{16}4,4,2,2,{8}4,1,{32}2,3,4,8,7,6,3,4,{4}5,
{16}4,4,6,6,{8}4,7/3,8/2,6/4,{4}1,
{16}3-6[8:1],3,8-4[8:1],8,{8}3,8,{4}1-5[8:1],1b,
{8}4/6,{16}3,7,3,7,{8}3,8/2,{16}3,7,3,7,{8}3,
6/4,{16}3,7,2,8,{8}1,8/2,{16}3,7,4,6,{8}5,
6/4,{16}3,7,3,7,2,8,1,1,1,1,1,1,1,1,
{1}1b-5[2:1],
{4}8-6[8:1],8/5-1[8:1],{8}5/2-4[8:1],3,8/2-6[8:1],7,
{4}2-4[8:1]/8-4[8:1],2/8-6[8:1],8/5-1[8:1],5/2-4[8:1],
{8}2/8-4[8:1],7,8/3-1[8:1],2,{4}3/5-7[8:1],5/8-4[8:1],
8/1-5[8:1],6/1-3[8:1],6/1-7[8:1],5/1,
{2}Cf/4b-8[8:1],{8}6/2-5[8:1],7,{4}6/2,
{8}2/6-1[8:1],3,{4}6-4[8:1]/2-4[8:1],6/2-6[8:1],2,
{8}8-4[8:1],7,8/2v5[8:1],3,2/7,8,{32}7x,6,5,4,3,2,1,8,
{8}7bxV53-6[2:1],{4},{16}A2,E2,E1,{8},{16}C,{8},E3,
2x,7,{4}2-4[8:1],2/1,{8}8/1-5[8:1],7,
{4}1/8,7/8-4[8:1],{8}8/1,2,{4}1/7-5[8:1],
8/7,1,{8}1-7[8:1],2,1/4-6[8:1],3,
{4}4/2b,7,{8}6/4,7/3,{4}8/2,
{8}7/8,6/1,{4}2/5-7[8:1],5/3,4-8[8:1],
4/3,2/3-7[8:1],3/1,2-6[8:1],
2/8,7,{8}6/4,5/3,3/4h[4:1],{32}2,1,8,7,
{8}6bxV82[2:1],{4},{16}E5,E6,{2}E7,
{4}6,6h[4:3],,{8}3,{24}1,2,3,
{16}4h[16:3],{8},{16}7,{8},6,{16}8,{8},{16}4h[16:5],{8},{24}8,7,6,
{8}5h[8:5],{2},{8}1,6,{24}2,3,4,
{8}5h[8:3],{4},{8}8,{16},,,2,{8},{24}7,6,5,
{8}4h[8:5],{2},{8}2,5,3,
{16}6h[8:5],{4},{16}7,{4},{8}8,1,2,
3q4[8:3],{2},{8}8,7,6,
{4}5-8[8:1],5,{8},8h[8:1],1h[8:1],7h[8:1],
{4}2-4[8:1],1/2,6-4[8:1],8/6,
2-5[8:1],2/1,6-3[8:1],8/6,
2-5[8:1],2/C,7-4[8:1],7/C,
2-6[8:1],2/B3/B4,7-3[8:1],7/B6/B5,
1-5[8:1],1/B4/B3/E4,8-4[8:1],8/B6/E6/B5,
1-6[8:1],1/B5/B4/E5,8-3[8:1],8/B5/B4/E5,
{8}1,1,8,8,2,2,6,6,
{16}4,5,4,5,6,3,6,3,7,2,6,3,8,1,7,2,
8-4[8:1],8,1-5[8:1],1,{8}8-6[8:1],1-3[8:1],8,1,{4}4,
{16}6v1[8:1],6,3,3,{8}6,2,{32}2,3,4,8,7,6,3,4,{8}5,8,
{16}5-3[8:1],5,6-8[8:1],6,{8}5-1[8:1],6-2[8:1],5,6,{4}8,
{16}2,2,1,1,{4}2-8[8:1]*-4[8:1],2-5[8:1],2b,
{24}1,8,7,6,5,4,{8}3,{24}1/3h[8:1],8,7,6,5,4,3,2,1,{8}8,6/8h[8:1],
{24}6,7,8,1,2,3,{8}4,2/4h[8:1],{24}2,3,4,5,6,7,{8}8,5/8h[8:1],
{24}5,4,3,2,1,8,{8}7,2/7h[8:1],{24}2,3,4,5,6,7,{4}8w4[8:1],
{1}Cf/8b>7[2:1]*<1[2:1],
{16}7,5,6,4,7,4,5,3,8,3,4,2,8,3,{8}4,
{16}4/8h,7,6,5,8/4,3,2,1,4/8-4[8:1],7,6,5,{4}8/4,
{16}3,5,1,7,3,4,1,8,4,5,2,8,5,6,{8}1,
{16}1h,2,3,4,5/1h,8,7,6,1h/5-1[8:1],2,3,4,{4}5,
{16}8,2,7,3,6,1,7,3,5,2,7,4,{8}8,{32}8b,7,6,5,
{8}4h[8:1],{32}1b,2,{16}3h[8:1],,{32}5b,6,{8}7h[8:1],{32}5b,4,{16}3,,7,4,5,3,4,
{4}1-6[8:1],1/8-3[8:1],8,{8}8/1,6/3,
{32}8b/1h[16:1],7,{16}6,,{32}2b/7h[16:1],3,{8}4,5,{32}1b/8h[16:1],2,{16}3,,{32}7b/2h[16:1],6,{8}5,{64}E3,B3,B4,E5,E7,B6,B5,E5,
{16}8x,1,7,2,6,3,5,2,7,3,4,2,8-6[8:1],5,{8}7,
8-2[8:1],{16}3,3,{8}8-6[8:1],{16}5,5,{8}8-2[8:1],{16}3,3,{4}8,
{16}3,4,2,1,4,5,1,8,5,6,8,7,5-3[8:1],6,{8},5/7-1[8:1],
6,7/2-4[8:1],3,{32}7x/2-8[8:1],6,{8},{32}6x,5,{8}2,{32}5x,4,{16},1,
7,1,7,2,6,2,6,3h,5,3h,5,1h,7,4h,5,
2h,4,1h,6,3h,8,2h,6,{32}1bxh,2,3,4,8bx/5,7,6,5,4/1bx>8-3-5-1[4:7],2,3,4,8bx/5,7,6,5,
{1}4h[1:1],
{4},4x-6-1[4:1],{2},{32}1x-6[8:1],
2,{16}3,{8},{32}4x-7[8:1],3,{16}2,{8},{32}1x-6[8:1],2,{16}3,{8},{32}4x-7[8:1],3,{16}2,{8},{32}1x-6[8:1],
2,{16}3,{8},{32}4x-7[8:1],3,{16}2,{8},{32}1x-6[8:1],2,{16}3,{8},{32}4x,3,{16}2,{8},{4}8-5[8:1],
{32}4x-7[8:1],3,{16}2,{8},{32}8x-5[8:1],1,{16}2,{8},{32}4x-7[8:1],3,{16}2,{8},{32}8x-5[8:1],
1,{16}2,{8},{32}4x-7[8:1],3,{16}2,{8},{32}8x-5[8:1],1,{16}2,{8},{4}4x,
{8}1b,1,1,1,1,1,1,1,
{16}8,8,1,1,7,7,2,2,6,6,3,3,5,5,4,4,
5,3,5,3,6,2,6,2,7,1,7,1,{32}8b,7,6,5,1b,2,3,4,
6b-4-8[2:1],{4},{16},{32}E7,B6,B5,E5,B4,{8}B3,E3fh[8:3],{4},{1}8b,
