&title=Forbidden Star
&artist=Sakuzyo
&first=0.03
&des=Lushan
&lv_5=14
&inote_5=(187)
{1},,6>7[8:11]/2q3[1:3],,6q7[1:1],
{2},6z2[6:1]*V84[6:1],
{8}1xb/5xb,1xhb[8:7]/5xb,,,,,,,5,5h[8:7],,,,,,,
1,6/2h[8:3],,,6,3/7h[8:3],,,3,8/4h[4:1],,8,{32}15,E5/E1`Cf,E4/E8,A3/A7,,,,,,,,,,,,,
{8}6b/2h[2:1],,8,,5,5-1[6:1],4,6,7h[2:1],,2,,4-8[6:1],3,24,,
3h[4:1],,1,3,4,5,6,27,8-4[6:1]/1,,2q5[16:7],2,6,6,8xb,,
{8}6h[8:5],,5,4,3,3h[8:1],7,8,
1>4[6:1],,17,,1<6[6:1],2,13,,2h[2:1],,8,,
{8}6h[2:1],4,5,4,3h[8:3],5,4,5,6/1w5[6:1],,1b,,
{8}3b/7h[2:1],,1,,4,4-8[6:1],5,3,2h[2:1],,7,,5-1[6:1],6,75,,
6h[4:1],,8,6,5,4,3,72,1-5b[6:1]/8,,7pp4[16:7],7,3,3,2xb,,
{8}3h[8:5],,4,5,6,6h[8:1],2,3,
8>4[4:1],,4<8[4:1],,8-4[6:1],,2xb,,3,5,1h[4:1],,6,4h[8:1],8,4,
1x-6[8:1],5x-2[8:1],1x,5x>4-8b[16:3],,Ch[8:1],,,
{32}6/2,3x,4xh[16:3],,,,,,,,,,7/3x,6x-8[8:1]/2x-4[8:1],5x/1x,,,,,,,,,,,,,,,,,,
7/3,6x,5xh[16:3],,,,,,,,,,6x/2,7x/3x,8x/4xh[16:5],,,,,,,,,,1b,B1,,,,,,,
7x/3,4x,5xh[16:3],,,,,,,,,,8/4x,7x-5[8:1]/3x-1[8:1],6x/2x,,,,,,,,,,,,,,,,,,
6/2,5x,4xh[16:3],,,,,,,,,,5x/1,6x/2x,7x/3xh[16:3],,,,,,1h[8:1],,,,5h[8:1],,,,7h,,,,
3/7,6x/2x,5xh[16:3]/1xh[16:3],,,,,,,,,,
2/6x,3xv2[6:1]/7xv6[6:1],4x/8x,,,,,,,,,,,,,,,,,,
3/7,4x/8x,5xh[16:3]/1xh[16:3],,,,,,,,,,
4x/8,3x/7x,2xh[16:5]/6x,,,,,,,,,,{48}7b,B7,,,,,,,,,,,
{32}2/6,5x/1x,4xh[16:3]/8xh[16:3],,,,,,,,,,
1/5x,2xpp4[6:1]/6xpp8[6:1],3x/7x,,,,,,,,,,,,,,,,,,
3/7,4x/8x,5xh[16:3]/1xh[16:3],,,,,,,,,,
4x/8x,3x/7x,2x/6x,1x/5x,,,,,28,,,,1,,,,37,,,,
{8}51,,6/5-8b[8:1],,3b,4pp1[4:3],,7x,,,8-4b[8:1],7,8b,,,2,
13,,3/4-1b[8:1],,6b,5>6[2:1],,2x,,,5-1b[8:1],4,3b,,,,
3/5,,3/4-1b[8:1],,6b,5qq8[4:3],,2x,,,1-5b[8:1],2,1b,,,7,
86,,6/5-8b[8:1],,3b,4<3[2:1],,7x,,,4,5,
{24}6b/E5,E6,E7,E8,E1,E2,E3,E4,D5,D6,D7,D8,
{8}D1f/E1/A8/A1,,,,3h[2:1],,4,,5h[1:1],,,,,,,,6pp5V31[2:3],,,,,,,,,,,,6,,,,
,,,,6h[2:1],,5,,4h[1:1],,,,,,,,3>5[4:5],,,,4qq3[4:3],,,,,,,,,,5,3,
2h[4:1]/4h[4:1],,,3h[4:1]/5h[4:1],,,6,4,6h[4:1],,8h[4:1],,4h[4:1],1,2h[4:1],,
E5,E3,E6,E4,7h[4:1],,3h[4:1],,{24}5,3,5h[12:5],{8},4,,3h[2:1],,2,,
1h[4:1],,{12}E5,E1,B4,B8,B3,B7,E3,E7,A2,A6,E2,E6,E1,E5,A8,4xh[2:1],,,6,,,
{8}8h[4:1],,{12}E5,E1,B5,B1,B6,B2,E7,E3,A7,A3,E8,E4,E1,E5,A1,{8}5x-1b[6:1],,,,
6xhb[4:1],8,1,7hb[4:1],5,4,8x,3x/7x,2hb[4:1],4,5,3hb[4:1],1,8,4x,3x/5x,
7hb[4:1],5,4,6hb[4:1],8,1,5x,2x/6x,3hb[4:1],1,8,6hb[4:1],8-3[8:1]*-4[8:1],1,8xb,,
6xhb[4:1],8,2,7hb[4:1],1,3,8x,1x/7x,2hb[4:1],4,6,3hb[4:1],5,7,4x,2x/6x,
7hb[4:1],5,3,6hb[4:1],8,2,4x,2x/6x,3hb[4:1],1,7,6hb[4:1],8-4b[8:1],2,8xb,,
{16}7b/3b,,5,6,5,,2b/8b,,4,5,4,,3x,,35,,2b/6b,,4,3,4,,7b/1b,,5,4,5,,6x,,64,,
7b/3b,,4,6,5,,2b/6b,,5,3,4,,6x,,74,,1b,4,3,5,2,,8b,5,6-1b[8:1]*-2b[8:1],4,7,,6xb,,,,
{1}7xhb[2:7]/3xh[1:1],,Chf[2:3],,
{8}6b<4[8:3]/2b,,1,3,5-2[6:1],5-8[6:1],,,3>5[8:3],,8,6,4-1[6:1]*-7[6:1],4,4,,
2/6-4[8:1],,6-8[8:1],1,6-4[8:1],3,6,1x>7[16:5],1x,,4h[4:1],,{24}8x,1,2,4x,5,6,1x,2,3,5x,6,7,
{8}8xp4[6:1]/4xp8[6:1],,8b/4b,,2,2,6,7,
8>3[8:1],7,86,7,8<5[8:1],1,82,1,{24}3,4,3h[24:7],,,,
{8}8x,6h[4:1],2,4h[4:1],5,6x/3x,7,56,45,43,3V17[6:1]/2-4[8:1],1,2b,,
{8}3b>5[8:3],,8,6,4-7[6:1],4-1[6:1],,,6<4[8:3],,1,3,5-8[6:1]*-2[6:1],5,5,,
7pp5[2:1]/3,,7b,4,3,2,1,8xb<2[16:5],4b/8b,,5h[4:1],,{24}E2,E1,E8,E7,E6,E5,8x,7,6,4x,3,2,
{8}1v4[8:1]/5v8[8:1],,1b/5b,,6-4[8:1],4-8[8:1],6,2,
1-5[8:1],2,13,2,1-5[6:1],8,17,,6,56,8b/4b,,3,43,1b/5b,3,
{8}1-6[12:1]*-4[12:1]/7b,5w1[8:1]/3b,1xb,5xb,
