&title=Doping Dance
&artist=STEAKA
&first=1.36
&des=BallThe
&lv_5=14.9
&des_5=BallThe
&inote_5=
(194){8}3,3h[8:3],4,4h[8:5],,6,7,8-3[8:1],
{16},,5,6,{8}7,4,5x/8h[8:1],5,4x/7h[8:1],4,
6,6h[8:3],5,5h[8:5],,3,2,1<6[8:1],
{16},,4,3,{8}2,5xh[8:5],{16}4,3,2,1,{4}8b,
{8}8,8h[8:3],7,7h[8:5],,5,4,3h[8:1],
{16},,3/7,2/6,{8}5/1h[2:1],3x,4,4,5,5h[4:1],
2,2h[8:5],1,1h[8:1],,4,5,6,
3b,{16}7,7,{8}2b,6,{16}5b/1b-5b[8:1],6/2,7/3,8/4,{4}1/5/Cf,
{8}2-5[8:1],1-6[8:1],2,1,4,3/B7,2/B6,1/B5,
B5h[8:3],{16}E1,E2,{4}E3,{8}4x-6[8:1],3x-8[8:1],4,3,
7x-4[8:1],1x-3[8:1],7,1,5,6/B2,7/B3,8/B4,
B4h[8:3],{16}E1,E8,{4}E7,{16}2,2,1,1,{4}8b,
{8}6-1[8:1],2-5[8:1],6,2,8,7/B3,6/B2,5/B1,
8xh[4:1],{16}4,5,{8}6,1,2-5[8:1],8-4[8:1],2,8,
3-8[8:1],7-4[8:1],3,7,1,2/B6,3/B7,4/B8,
1xh[4:1],{16}5,4,{8}3,7,{16}5/1,6/2,7/3,8/4,{4}5b/1b,
1-3-8-4[8:3],7-5-1[4:1],{8}A8,A5,A1,3-5[8:1],
,3h[4:1],,7,8-5[8:1]/4-1[8:1],5/1,{4}4b/8b,
3-5-2-6[8:3],7-1-5[4:1],{8}A2,A1,A5,{32}8b,1,2,3h[8:3],
,,,,4b,5,6,7h[8:1],,,,,2b/6b,1/5,{16}8/4,,,B2/B6,B3/B7,{4}B4/B8,
5-1-6-3[8:3],7-2-8[4:1],{8}A6,A2,A8,6-4[8:1],
,6h[4:1],,2,7-2[8:1]/3-6[8:1],6/2,{4}7b/3b,
5v2[8:1]/1v6[8:1],1>4[8:1],{8}5,6,7,8h[8:1]/5b-1[8:1],
,5bw1[8:1],,5b,,B1,C/8-4b[8:1],B5,
,,8-2[8:1],7-5[8:1],8-3[8:1],7-4[8:1],,7>2[8:1],
{16},,3,4,{8}5-8[8:1],4v1[8:1],5,4,{4}Ch[4:1],
2-4[8:1],{8}2-7[8:1],6,2q6[8:1],5,2,7h[8:3],
{16},,4,3,{8}2,8,{16}5,5,4,4,{32}3b,2,1,8,7,6,5,4,
{4}3h[4:1],{12}7,7,7,{32}5b,4,{16}3,{32}8b,7,{16}6,{32}3b,2,{16}1,{32}7b,6,{16}5,
,,2,2,{32}8,7,{16}6,{32}3,2,1,7,6,5,,,8,1,{16}2,{32}6/Ch[4:1],7,{16}8,{32},,,,,,,,,,,,2x,
3x,7x,6x,1x,2x,6x,5x,8bx,1,{16}2,{32}4bx,5,{16}6,{32}1b,2,{16}3,{32}6b,7,8,1h[8:3],
,,,,2b,3,4,5h[8:1],,,,,4b/8b,3/7,{16}2/6,B1,B5,B3,B7,{4}Cfh[4:1],
6-8-5-1[8:3],4-2-6[4:1],{8}A5,A2,A6,1-7[8:1],
,1h[4:1],,6,3/7-2[8:1],6/2,7/3-6[8:1],4,
{4}3/8-4[8:1],8b/3-8[8:1],{8}3,6,5,{32}8b/4b,5/1,6/2,7/3,
,,,,5b/1b,2/6,{16}3/7,{32},,,,6b/2b,7/3,8/4,5h[32:9]/1h[32:9],,,,,,,,,,,,,,,,,{4}4-2-6-1[8:3],
{8}A4/7-5v8[4:1],A2,A6,A5,A8,2-4[8:1],
,2h[4:1],,5,6-1[8:1]/2-5[8:1],5/1,{4}2/6,
4-2[8:1]/8-6[8:1],8/4,{8}1-5[8:1],5-2[8:1],,6-1[8:1],
,4v7>5[2:1],,5h[8:1],,5,6,7,
{4}8-6-1-6[8:3],3-1-5[4:1],{8}A1,A6,A5,7-4[8:1],
,7h[4:1],,3,2>5[8:1]/6<1[8:1],5/1,{4}6/2,
5x-1[8:1],5b/7-4[8:1],{8}7,2,1,{32}4b/8b,5/1,{16}6/2,
{32},,,,5b/1b,6/2,{16}7/3,{32},,,,6b/2b,7/3,8/4,5h[32:9]/1h[32:9],,,,,,,,,,,,,,,,,{4}4-2-8-3[8:3],
7-4-6[4:1],{8}A8,A4,A6,3-5[8:1],
,3h[8:1],,2/6x,A3/E4/A4,A1/E2/A2,A8/E8/A7,A6/E6/A5,
{4}2b-6b[8:1],1b-5b[8:1],8b-4b[8:1],7b-3b[8:1],
{8},,,1b/5b,{4}1bh[4:1]/5bh[4:1],{32}D2f/D6f,A6/A2,D7/D3,A7/A3,{8}D4/D8,
{4}2b-5[8:1],2/5h[8:1],{8}2/6<2-8-6[2:1],7/3,6/4,5-1[8:1],
,5,,2,1/7-4[8:1],8,7/1>5V31[8:3],2,
1/8-4-7-5[8:3],7,{4}8,{8}1x,2x,3/7x,4/8xh[8:1],
{4}B4h[2:1]/E5h[2:1]/E4h[2:1],B8h[4:1]/E8h[4:1]/E1h[4:1],E7/B6f/E6/E2/B2f/E3,{24}4,5,4,5,,,{8}3/6-1[8:1],
5,6-4[8:1],3,6/2-8[8:1],1,7/2-4[8:1],6,
2/7-5[8:1],8,7-4[8:1],4,7-3[8:1],3,7,2,
1b-4[8:1],2,5b-8[8:1],6,3b-6[8:1],4,7b-2[8:1],8,
{4}4b-1[8:1],4b-7[8:1],4b,{32}4bw8b[8:1],3,2,1,8,7,6,5,
{4}4/Cf,2x-5[8:1],{8}2/8-6-4<8[2:1],7,8,1-5[8:1],
,1,,7,2/8-4[8:1],1,8/3>4[8:3],2,
{2}3/7-2-8-6[8:3],{8}3x,2x,1/5x,2/6xh[8:1],
{4}B2h[2:1]/E2h[2:1]/E3h[2:1],B6h[4:1]/E7h[4:1]/E6h[4:1],E8/B8f/E1/E4/B4f/E5,{24}1,8,1,8,,,{8}2-5[8:1],
7,2/6-1[8:1],7,6/4-8[8:1],3,4/7,3,
5-1[8:1],1,5-8[8:1],2,5-7[8:1],3,5,2,
2b-5[8:1],3,6b-1[8:1],7,3b-8[8:1],2,7b,6,
{32}2b/6bh[8:3],1,8,7,,5,4,3,2,1,8,7,,5,4,3,6b/2bh[2:1],7,8,1,,3,4,5,6,7,8,1,,3,4,5,
{8}6-1[8:1],2,{4}6b/3h[2:1],{8}2-7[8:1],2,2b,4-1[8:1],
,4/6,{4}5bh[4:1],{32}E4,B3,B2,E2,E6,B6,B7,E8,{4}4b,
{8}2-5[8:1],5,{4}2b/6h[2:1],7-2[8:1],{8}7b,5-1[8:1],
,5,{4}3bh[8:1],{32}5b/4h,6,{16}7,{32},,2b/1h,3,{8}4,{32}6b/5h,7,{16}8,
{8}3,2-5[8:1],5b-1[8:1],1-6[8:1],6-2-4[4:1],8,8b,8w4[8:1],
,,{4}C,{32}E2,B2,B3,E4,E8,B7,B6,E6,{4}1b,
{8}7,7-4[8:1],{4}8b/4-6[8:1],{8}2-7[8:1],1,2b,B6h[2:1]/E7h[2:1]/E6h[2:1],
,B2h[4:1]/E3h[4:1]/E2h[4:1],,Cf,{16}E4,E5,{8}8bw4[8:1],{4}8b/1b,
{1},,,,,,,,{4}4/5,
4/5,3/5,3/5,
5/3,5/3,6/3,6/3,
2/6,2/6,1/6,1/6,
7/1,7/1,8/1,8/1,
{8}2/1b,2,2/3,3,3/4,4,4/5,5,
6/5b,6,7/6,7,8/7,8,8/1,1,
{16}1b,2,3,4,2b,3,4,5,{32}3b,4,5,6,7,8,1,2,3,4,5,6,7,8,1,2,
{8}3/C,{16}B6,B5,{8}E5,7bx/C,{16}E3/7bxw3[8:1],B2,B1,E1,,,,,{8}1b-5[8:1],
5,1/6,7,8,7>3>7[2:1],4,7/3h[8:1],
,4h[8:1],,5,5-2[8:1],6-1[8:1],5,6,
4-8[8:1],8-4[8:1],{4}4>1>4[8:3],{8}5,6,7,8,
{4}1bh[2:1],5bh[4:1],E1f/B1f/E2f/E6f/B5f/E5f,{24}4b,5,4,5,,,{8}1/8-6[8:1],
1,2/8-5[8:1],2,3/8-4[8:1],2,1/8,1,
8-2[8:1],5,5/8-3[8:1],5,6/8-4[8:1],6,7/8,6,
{4}7/8>4[4:1],4<8[4:1],8V64[4:1],4V28[4:1],
7-3[8:1],7,{32}4bh[4:1]/8bh[4:1],,,,,,,,,5,6,7,8,1,2,3,
{4}4/7-4[8:1],{8}7/4,3,2,5/2>6>2[2:1],1,2/6h[8:1],
,7h[8:1],,8,1-6[8:1],2-5[8:1],1,2,
{4}7<3[4:1],3>7[4:1],{8}6,5,4,3,
{4}2bh[2:1],6bh[4:1],E7f/B6f/E6f/E2f/B2f/E3f,{24}1bh,8h,1h,8h,,,{8}6/4-2[8:1],
6,7/4-1[8:1],7,8/4-8[8:1],7,4/6,5,
4-6[8:1],2,1/4-7[8:1],1,2/4-8[8:1],1,2,3,
{24}4/8xh,5,6,7,8,1,2/6xh,3,4,5,6,7,8/4xh,1,2,3,4,5,6/2xh,7,8,1,2,3,
{2}4h[4:1]/Cfh[4:3],B7h[4:1]/B6h[4:1]/E7h[4:1]/B3h[4:1]/E3h[4:1]/B2h[4:1],
{32}2/C,3,4,5,6,7,8,1,2,3,4,5,6,7,8,1,2/C,3,4,5,6,7,8,1,2,3,4,5,6,7,8,1,
2/C,3,4,5,6,7,8,1,2,3,4,5,6,7,8,1,2/C,3,4,5,6,7,8,1,2,3,4,5,6,7,8,1,
2/C,3,4,5,6,7,8,1,2,3,4,5,6,7,8,1,2/C,3,4,5,6,7,8,1,2,3,4,5,6,7,8,1,
2/C,3,4,5,6,7,8,1,2,3,4,5,6,7,8,1,2/C,3,4,5,6,7,8,1,2,3,4,5,6,7,8,1,
{8}2/6h,6h,{4}6h[4:1],{8}4h,4h[4:1],,2h,
{4}2h[4:1],{8}8h,8h[8:1],1bh,7h,{4}7h[4:1],
{8}4h,4h,{4}4h[4:1],2h[4:1],{8}5,3bh[8:1]/1bh[8:1],
,8bh[8:1]/6bh[8:1],,4b/5b,{16}4b,5b,{8}6bh/3bh,{4}5bh[4:1]/4bh[8:1],
{8}4,3/1,1/3h,3h/1h,{4}3h/1h,{8}8/6h,6h/8h,
,5/4h,{4}4/5h,5bh[8:1]/7bh[8:1],4bh[8:1]/2bh[8:1],
{8}5/6h,5/4h,3/4h,5/4h,{4}5/6h,{8}5b/4b,5bh[8:1]/4bh[8:1],
,6bh[8:1]/2bh[8:1],,3bh[16:1]/7bh[16:1],{16}4b,5b,{8}6b/3b,{4}5bh[8:1]/4bh[8:1],
{8}5/4,6/2,6/2,6/2,{4}6/2,{8}3/7,3/7,
,8/4,{4}8/4,5h[8:1]/1h[8:1],4h[8:1]/8h[8:1],
{8}2b-6b[8:1],2b,,8b-4b[8:1],{4}8b,{8}3b-7b[8:1],3b,
,5b-1b[8:1],{4}5b,{8}4b,4bh[8:1]/8bh[8:1],
E
