&title=どりーむもーど
&artist=Atena
&first=0
&lv_5=13.5
&des_5=枇杷想睡觉
&inote_5=
(134){4},,,,{8}6h[4:1],
B4,3h[4:1],B5,7h[4:1],C,2h[4:1],C,
7h[8:1],5h[8:1],4h[8:1],2h[8:1],B8,E7,{4}B5,
{8}3h[4:1],B5,6h[4:1],B4,2h[4:1],C,7h[4:1],C,
2h[8:1],4h[8:1],5h[8:1],7h[8:1],B1,E3,{4}B4,
{8}2/7v5[8:1],8,2/7,{16}1,1,,7,{8}7,{16}2-5[8:1],8,2,8,
{8}2/7-4[8:1],8,7/1,{16}2,2,,8,{8}8,{4}C,
{8}2/7-3[8:1],8,2/7,{16}1,1,,7,{8}7,{16}2v5[8:1],8,2,8,
{8}2/7v4[8:1],8,7/1,{16}2,2,,8,{8}8,{4}C,
{8}8/1,7,6/3,5,5/4-8[8:1],3,{4}2/4,
{16}1x,1x,1x,1x,{8}1x-4[8:1],2,1-6b[8:1],8,{4}1,
{8}7/4,6,5/2,3,7-3[8:1]/2-6[8:1],6/3,{4}7/2,
{16}8x,8x,8x,8x,{8}8x-4[8:1],7,8w4b[8:1],1,{4}8/Cf,
{8},{16}6,5,{8}6,3h[8:1],{16}6,5,4,3,{8}6h[8:1],3,
,{16}7,8,{8}7,2h[8:1],{16}7,8,1,2,{8}7h[8:1],2,
,{16}3,4,{8}3,6h[8:1],{16}3,5,4,6,{4}3h[8:1],
{8},{16}6,4,5,3,6,4,5-1b[8:1],4,5,4,{4}5x,
{8},{16}6,5,{8}6,3h[8:1],{16}7-3[8:1],7,1-5[8:1],1,{8}7,1,
{16},6h[16:1],3h[16:1],5h[16:1],{4}4h[8:1],{16}8-4[8:1],8,2-6[8:1],2,{8}8,2,
,{16}2,8,{8}2,7h[8:1],{16}1,8,1v4[8:1],8,1,8,{8}1,
{16},7,3,5,{4}1h[8:1],{8}C,{16}E2,E3,{4}E4,
{8}8qq4[8:5],A1,E2,A2,{4}E3,{16}2,2,{8}2,
1pp4[8:5],8,7,6,{4}5,{8}7b,7b,
7<2[8:5],B7,C,B3,{4}A3,{16}1,1,{8}1,
{4}1/7h[8:1],2h[8:1]/8-4[8:1],8b/1b-5[8:1],1b/8b,
{8}8/1,7/2,3-1[8:1]/6-8[8:1],5/4,{4},{16}8-4[8:1],1,{8}8,
8/2-5[8:1],1,2/7-3[8:1],8,{4}7/2,{16}8x,7x,{8}6x,
{4}4b,{16}1x,2x,{8}3x,{4}5b,{16}8x,7x,{8}6x,
4b/A8,3b/A7,2b/A6,1b/A5,{4}A4/8b-4[8:1],{32}E7,B6,B5,E5,{8},7bx-4[8:1],
8,7/1-5[8:1],2,1/8-4[8:1],7,{16}8/1x,2x,3x,4x,
{8}5x-1[8:1],4,7>2[8:1],8,3<6[8:1],4,{4},{8}7/2-5[8:1],
1,2/8-4[8:1],7,8/1-5[8:1],2,{16}1/8x,7x,6x,5x,
{8}4x-8[8:1],5,2<7[8:1],1,6V42[8:1],5,{4},{8}7bx-5[8:1],
8,7/3-1[8:1],4,3/8-4[8:1],7,{16}8/A1,D2,A2,D3,
{8}3x-8[8:1],2,7-4[8:1],6,1-5[8:1],2,{4},{8}6-8[8:1],
5,6/2-4[8:1],1,2/5-1[8:1],6,{16}5/A4,D4,A3,D3,
{8}2x-5[8:1],3,6-1[8:1],7,4-8[8:1],3,,7,
7-3[8:1],{4},{8}1-4[8:1],8-5[8:1],1,{16}8/A3,D3,A2,D2,
{8}7-2[8:1],8,7/3-6[8:1],4,3/7<4[8:1],8,7,1,
1>4[8:1],{4},{8}7-4[8:1],8-3[8:1],7,8,6,
1/8,7,8-6b[8:1]/1-5b[8:1],2,{4}1b-3b[8:1]/8b-4b[8:1],8b/1b,
{8}3bx-1[8:1],4,3/7-5[8:1],8,7/4-8[8:1],3,{16}4/A5,D6,A6,D7,
{8}7x-4[8:1],6,3-8[8:1],2,5-1[8:1],6,,2,
2-6[8:1],{4},{8}7,8-3[8:1],7,{16}8/D7,A6,D6,A5,
{8}2-7[8:1],1,2/6-3[8:1],5,6/1w5[8:1],2,{4}1/Cf,
6h[8:1]/3h[8:1],6h[8:1]/2h[8:1],6h[8:1]/1-5[8:1],{8}6/1,{16}6x,7x,
{8}8x,1,8,{16}1,8,1,8,{8}1,{16}8,1,7,2,
{4}3h[8:1]/6h[8:1],3h[8:1]/7h[8:1],3h[8:1]/8-4[8:1],{8}3/8,{16}3x,2x,
{8}1x,8,1,{16}8,1,8-6-4[8:1],1,{8}8,{4},6h[8:1]/2-7[8:1],
2/6h[8:1],6h[8:1]/8-3[8:1],8/6h[8:1],
7h[8:1]/4-1[8:1],4/7h[8:1],7h[8:1]/2-5[8:1],2/7h[8:1],
3h[8:1]/7-2[8:1],7/3h[8:1],3h[8:1]/1-6[8:1],1/3h[8:1],
2h[8:1]/5-8[8:1],5/2h[8:1],2h[8:1]/7-4[8:1],7/2h,
1>5[4:1],5<1[4:1],{2}1>5[4:1],
{8}7,8,1,2,{4}3,{8}6,7,
{4}8/1,{8}3,2,1/8,7,6/3,5,
4,5/3,6/2,7/1,{2}8w4[8:1],
{4}3h[4:1],{8}6h[4:1],1,4h[4:1],7,5h[4:1],2,
4,3,2,1,{4}8,{8}5,6,
{2}7b/8b,1b/2b,
{8}5/4,6/3,7/2,8/1,{32}1,2,3,4,5,6,7,8,1,2,3,4,5,6,7,8,
{8}1bx-5[8:1],2,1/8-5[8:1],7,8/1-3[8:1],2,{16}1/8x,7x,6x,5x,
{8}4x-8[8:1],5,2<7[8:1],1,6>3[8:1],5,{4},{8}2/7-4[8:1],
8,7/1-5[8:1],2,1/8-4[8:1],7,{16}8/1x,2x,3x,4x,
{8}5x-1[8:1],4,7>2[8:1],8,3V57[8:1],4,{4},{8}2bx-4[8:1],
1,2/6-8[8:1],5,6/1-5[8:1],2,{16}1/A8,D8,A7,D7,
{8}6x-1[8:1],7,2-5[8:1],3,8-4[8:1],7,{4},{8}3-1[8:1],
4,3/7-5[8:1],8,7/4-8[8:1],3,{16}4/A5,D6,A6,D7,
{8}7x-4[8:1],6,3-8[8:1],2,5-1[8:1],6,,2,
2-6[8:1],{4},{8}8-5[8:1],1-4[8:1],8,{16}1/A6,D7,A7,D8,
{8}2-7[8:1],1,2/6-3[8:1],5,6/2>5[8:1],1,2,8,
8<5[8:1],{4},{8}2-5[8:1],1-6[8:1],2,1,3,
8/1,2,1-3b[8:1]/8-4b[8:1],7,{4}8b-6b[8:1]/1b-5b[8:1],1b/8b,
{8}6bx-8[8:1],5,6/2-4[8:1],1,2/5-1[8:1],6,{16}5/A4,D4,A3,D3,
{8}2x-5[8:1],3,6-1[8:1],7,4-8[8:1],3,,7,
7-3[8:1],{4},{8}2,1-6[8:1],2,{16}1/D3,A3,D4,A4,
{8}7-2[8:1],8,7/3-6[8:1],4,3/8w4[8:1],7,{4}8/Cf,
E
