&title=numb numb
&artist=TAK&初音未来&重音テト (かさねてと)
&first=0
&lv_5=13+
&des_5=AmaoriHaruna
&inote_5=
(80){4},,,,{384}8xq5[4:1],
4bxq1b[384:95],{4},,{16},{64},,,{96},{384}6xv7[4:1],2bxv3b[0.7422##0.75],{4},,,{16},{64},,,{96},{2}5xV31[16:1]/4xV28[16:1],
8xV64[16:1]/1xV75[16:1],{8}6/4q1<5[8:3],{16}3,2h[16:5],{4},,,{8}7h[8:1]/5>2[16:1],
5,{32}7,{16},{32}6,{16},5,
{8}2h[8:1]/4x<7[16:1],4,{32}2,{16},{32}3,{16},4,{8}7/5xp1>4[8:3],{16}7/5,8h[16:7],,,,,,,,,,,,5,
3,4,3,5,3,4,2,4,
E4,E5,E6,E7,{64}B5,B4,{32}E4,{8},{16}6,6,5,7h[16:1],4,6,5,7,5,
E6,E5,E4,E3,{64}E6,B5,{32}B4,{8},{16}2x,3x>8b[16:1],4h[32:1],{32},4h[32:1],{16},3/7h[8:1],{8},{16}6x,
5x<2[16:1],6h[32:1],5,7,{4}7h[8:1],{8}7bxh/5bxh,{64}A2,A4,{32},,,{64}7x/E7,E6,E5,E4,E3,E2,E1,E8,{8}E7,
{384}8xV25[16:1],4xV61b[0.7422##0.1875],{4},{16},,{64},,,{96},{16}6,7-5[16:1],8,1,2,1/7b-3[16:1],2,3,4,
{8}5x-3-7-1b[16:3],B5/B6,1x>5[8:1],5x<1[8:1],{16}5xh[4:1],{4},{16}E4,2h[16:1],E1/B1,
,E6,7h[16:1],E1/B8,,,,3,2-4[16:1],1,8,7,1x/2x-6[16:1],A8,A7,A6,
{8}4xV62-8b[16:3],B4/B3,8x<6>4[8:1],4x>2<8[8:1],{16}4xh[4:1],{4},{16}5,4,3,
1x/2x,8x/1x,8x/7x,7x/6x,{4}4x/5x<2b[8:1],4p7[8:1],6V41b[8:1],
2V85[8:1],{8}7,7x-1-6-2-5[16:5],{4}7b,4x>8q4[8:3]*<8p4b[8:3],
{16},,,,,,,2,{8}6h[16:7]/E3,E5,{32}E1,{16},{32}B2,{16},E4,
{8}3h[16:7]/E7,E5,{32}E1,{16},{32}B7,{16},E6,{8}5bxh/7bxh,{64}A2,A4,{32},,,{64}7x/E7,E6,E5,E4,E3,E2,E1,E8,{8}E7,
{4}5x-1[16:1],6h[16:1],{16}8/6h[16:1],5,7/5h[16:1],8,{8}E7/B6/B5,{16}8/6h[16:1],5,
7/5h[16:1],8,{8}E6/B5/B4,{16}5/6h[16:1],8,5/7h[16:1],4,{8}B5/B4/E4,{16}6h[16:1],5h[16:1],4h[16:1],3h[16:1],{64}E3,B3,{32}B4,{16},{32}7h,
5xh,{16},{32}2h,4h,{16},{4}8bxh/6bxh,{16}1/3h[16:1],4,2/4h[16:1],2,{64}E3,B3,{32}B4,{16},1/3h[16:1],4,
1/4h[16:1],1,{64}E2,B2,{32}B3,{16},1/3h[16:1],4,2/4h[16:1],2h[16:1],{64}E5,E6,{32}E7,{16},3,5,4,6,{64}3x,2x,1x,8x,7x,6x,5x,4x,
E4,E3,E2,E1,E8,E7,E6,E5,{8}B4,{16},6x/5x,3x/5x,7x/4x,{8}6x/2xq6[16:1],5,5,{16}4/6,5/2,
{8}7/3p7[16:1],5,{16}5,5,6,7,{8}8<5[16:1],4/8,{16}8/4,3,2,1,
4/8p4[16:1],5,6,7,3,2,1,8,{8}3/7p3[16:1],4,4,{16}3/5,4/7,
{8}6/2q6[16:1],8,{16}8,8,7,6,1/5>2[16:1],2,7/3,8,7b,6b,5b,4b,
{64}1x/5x,6x/2x,3x/7x,4x/8x,{8},,,{16}5h[16:1],3,4,2,4,3,4,3,5,
E4,E5,E6,E7,{64}E5,B4,{32}E4,{8},{16}5h[16:1],6,6h[16:1],7,7,6,6h[16:1],5,5,
E6,E7,E8,E1,{64}E5,B5,{32}E6,{8},{16}7,6-1[16:1],{32}4,4,,5,{16}5,6b,{8},{32}2x,3x,
4bxV27[16:1],5,{16}5,6,6,{4}6h[16:1],{64}7bx,5x,{32}6xh,{16},{64}2bxh,4xh,{32}3x,{16},{64}E8,E7,E6,E5,E4,E3,E2,E1,{16}B8,5xV38b[16:1],
1xV74[16:1],{8},,,{16}3,{8}6/2-5[16:1],6h[16:1],{32}8/2-6[16:1],{16},{32}7,{16},8,
{8}2/6V84-2b[16:3],B4/B3,2x<6[8:1],6x>1[8:1],{16}4xh[4:1],{4},{16}E8,6h[16:1],B5/E5,
,E2,3h[16:1],E5/B4,,,,6,{8}3h[16:1]/7-4[16:1],7/3h[16:1],{32}1/7-3[16:1],{16},{32}2,{16},1,
{8}7/3V15-7b[16:3],B6/B5,7x>3[8:1],3x<8[8:1],{16}5xh[4:1],{4},{16}4,3,2,
1x/B8,7x/B2,3x/B6,5x/B4,{4}C/1>5b[8:1],8p3[8:1],2V85b[8:1],
6V41[8:1],{16}3,3,{8}3<5-2-6<7-1[16:5],{4}3b,8x<4p5b[8:3]*>4q3[8:3],
{16},,,,,,,2,{8}6h[16:7]/E3,E5,{32}E1,{16},{32}B2,{16},E4,
{8}3h[16:7]/E7,E5,{32}E1,{16},{32}B7,{16},E6,{64}5bx,7x,{32}6xh,{16},{64}4bxh,2xh,{32}3x,{16},{64}E8,E7,E6,E5,E4,E3,E2,E1,B8/B1,B7/B2,B6/B3,B5/B4,{16}E5,
{4}4x-8[16:1],3h[16:1],{16}1/2h[16:1],3,1/4h[16:1],2,{8}E3/B3/B4,{16}1/3h[16:1],4,
2/4h[16:1],1,{8}B5/B4/E4,{16}4/3h[16:1],1,4/2h[16:1],5,{8}E6/B5/B4,{16}3h[16:1],4h[16:1],5h[16:1],6h[16:1],{64}E7,B6,{32}B5,{16},{32}2h,
4h,{16},{32}7h,5h,{16},{4}E5/E3,{16}8/6h[16:1],7,5/8h[16:1],4,{64}3bxh[16:3]/E1,B1,{32}B2,{16},1,2,
4/1h[16:1],5,{64}6bxh[16:3]/E2,B2,{32}B3,{16},4,3,2/7h[16:1],1,{64}E7/E3,B6/B3,{32}B5/B4,{16},3,6,2,7,{32}1x,2x,3x,4x,
{48}5x,6x,7x,8x,1x,2x,{64}3x,4x,5x,6x,7x,8x,1x,2x,E3,E4,E5,E6,E7,E8,E1,E2,{8}E3,{64}5x,6x,{32}7bx>5[32:15],{16},,,,,,,,,,,1h[8:1],
{8},{32}2x,3x,{4}4bx>8b[16:1],{16}6,5,4,3,
{8}6/2-6[16:1],4/8-4[16:1],2b,8b,{32}3h[16:3],{16},{32}2,{16},4,{32}5/6h[16:3],{16},{32}7,{16},1,
{8}5/3>5[4:1],2h/7h,3,2,{4}1h[4:1],{32}3x,4x,5x,2x,3x,4x,1x,2x,
{8}3x/1bxp4b[16:1],{4},{16}3/5,7/4,{8}6/2V46[16:1],1,1,{16}6/4,2/5,
{8}3/7V13[16:1],5,{16}5,5,6,7,{8}4/8<5[16:1],8/4,{16}8/4,3,2,1,
4/8q4[16:1],5,6,7,3,2,1,8,{8}3/7V53[16:1],1,1,{16}3/5,4/7,
{8}6/2V86[16:1],4,{16}4,4,3,2,5/1<6[16:1],6,7/3,4,3b,2b,1b,8b,
{64}1x/5x,2x/6x,3x/7x,8x/4x,E1/E5,E6/E2,{32},,,,,,,{16}4,3,2,{8}1>4b[16:1],6,{16}6,5,6,7,
{8}8p4[16:1],2,{4}2,{16},,,,,,,,,,,,,4,
2,4,{8}2-5b[16:1],6,6,{16}7,5,
{8}7-4[16:1],3,{4}3,,,,{32},E6,
{16},E5,E4,
E
