&title=时钟流转之岛
&artist=bbben
&first=0.02
&des=Sakurago
&lv_7=13?
&inote_7=(127)
{16}
7/3q6[8:4],,,,,,,,
,,,,,,,,
7/3q6b[8:4],,,,,,,,
,,,,,,,,
7/3q6m[8:4],,,,,,,,
,,,,,,,,
Ch[16:4],,,,,,E8,E1,
E2,,,E4m,,,E6m,,
1>4[8:3],,,,,,,,
6<1b[8:3],,,,,,,,
3<6m[8:3],,,,,,,,
8h[8:2],,,,,,,,
1>7[8:4]/7,,,,B4m,,,,
Cm,,,,B8m,,,,
{32}
B2h[4:3]/B3h[4:3]/E3h[4:3]/B7h[4:3]/B6h[4:3]/E7h[4:3],,,,,,,,
E1fm,,,,,,,,
Cfm,,,,,,,,
E5fm,,,,,,,,
{16}
1x,8,2,2,8,1,7,7,
3,4,2,2,5,4,6,5,
8,8,1,7,4,4,5,3,
{24}8,,,1h[8:1]/2h[8:1],,,{32}7m,6m,5m,4m,,,,,
{16}
8x,1,7,7,1,8,2,2,
6,5,7,7,4,5,3,4,
1,1,8,2,5,5,4,6,
{24}2,,,8h[8:1]/1h[8:1],,,{32}3hm[8:0],4hm[8:0],5hm[8:0],6hm[8:0],,,,,
{8}7h[8:10]/2-5[8:1],,,,5-8[8:1],,,,
{8}1>4[8:1],,1s5[8:2],,{16}A5m,A6m,A7m,A8m,A1m,,,,
{16}
{8}3h[8:8]/6-4[8:1],,,,2-8[8:1],,,,
{16}7<7[16:7],A6m,A5m,A4m,A3m,A2m,A1m,A8m,{16}A7m,A6m,A5m,A4m,A3m,,,,
{8}6h[8:10]/2-4[8:1],,,,5-1m[8:1],,,,
{8}8>3[8:1],,8z4[8:2],,{16}A4m,A3m,A2m,A1m,A8m,,,,
{8}1h[8:8]/6-3[8:1],,,,2-7m[8:1],,,,
{16}8V64[8:2]*-4[8:2],6m,5m,4m,3m,2m,3m,2m,{16}1m,,,,E7b/Cbf/E3b,,,,
{8}2x/6xqq3[8:28],,,,
B4/B5/E5,,,,
{4}E2,E1,E8hm[8:2],,
{4}2hx[8:2],,7hx[8:2],,
{4}E8,E1m,E2h[8:2],,
{16}1h[16:6],,,8h[16:5],,,,,
3h[16:6],,,5h[16:5],,,,,
2>5[8:1],,,6<1m[8:1],,,,,
{8}4-2[8:1]*-6[8:1]*w8m[8:1],,,,
{16}
1,8,2,2,8,1,7,7,
3,4,2,2,6,5,7,7,
3,5,4,6,2,7,4,5,
{32}
1b,2,3,4,5,6,7,8,
1h[8:8],2hm[8:0],3hm[8:0],4hm[8:0],5hm[8:0],6hm[8:0],7hm[8:0],8hm[8:0],
{8}Chf[8:6],,,,,,,,
{4}3x<2[8:26]/E1m/D1m,,
E2m/D2m,,E3m/D3m,,
E4m/D4m,,E5m/D5m,,
E6m/D6m,,E7m/D7m,,
{8}E8m/D8m,,,,
{8}E1m/D1m/7p6[8:4],,
E2m/D2m,,E3m/D3m,,
E4m/D4m,,E5m/D5m/2-4-1-5[8:4],,
E6m/D6m,,E7m/D7m,,
{8}E8m/D8m,,
{16}E1m/D1m/6xv1[8:1],,
E2m/D2m,,E3m/D3m,,
E4m/D4m,,E5m/D5m/2x-6[8:1],,
E6m/D6m,,E7m/D7m,,
{8}E8m/D8m,E1m/D1m/Chmf[8:6],,,,,,,,
{16}2,1,2,8,3,,3/5,,
4/6-1[8:1],,7,5,6,,2,,
3<6[8:1],4,2,5,3,,8-4bm[8:1],,
1-3[8:1]/7-5[8:1],,,,1/7,,,,
2-5[8:1],4,2,4,2,,8,,
7-3m[8:1],4,7,4,7,,1,,
{24}2-7[8:1]/6-3[8:1],,,,,,
{16}2/6,,,,8w4m[8:1],,1/7,,8b,,,,
2,4,3,5,4-8[8:1],,5/6,,4>1[8:1]*<7[8:1],,,,4b,,,,
8,1,7,8,6v1[8:1],,5/4,,6>1[8:1]*<1m[8:1],,,,6b,,,,
5,4,7,5,5/6,,4/7,,2/5,3,4,3,2/5,,7/8,,
1h[8:1]/6h[8:1],,,,
2h[8:1]/4h[8:1]/3hm[8:1],,,,
6h[8:1]/5h[8:1]/4m/7m,4m/7m,4m/7m,4m/7m,
1b/8b,,,,
2/6?<1m[8:1],4,3,5,3,3,4,4,2v5[8:1]/1?-6m[8:1],7m/8m,7m/8m,7m/8m,2b,,,,
7/1?v3m[8:1],8,6,6,5,7,4,4,3?-1m[8:1]/8-4[8:1],5m/6m,5m/6m,5m/6m,8b,,,,
2h[16:3],6m/7m,6m/7m,1h[16:3],4m/5m,4m/5m,3h[16:2],7m/8m,4h[16:3],1m/2m/8m,1m/2m/8m,5h[16:3],2m/3m/1m,2m/3m/1m,6h[8:1],3m/4m/2m,
7pp2[8:4],3m/4m/5m,3m/4m/5m,3m/4m/5m/6m,3m/4m/5m/6m,3m/4m/5m/6m,3m/4m/5m/6m,3m/4m/5m/6m,3m/4m/5m/6m,3m/4m/5m/6m,3m/4m/5m/6m,3m/4m/5m/6m,3m/4m/5m/6m,,,,
{16}1b/2b/E5m/E6m/B5m,,,3b/4b/E7m/B7m/B8m/E1m,,,5b/6b/A2m/Cm/E3m/B2m/B3m,,7b-4[8:1]/8b-3[8:1],3hm[8:0]/4hm[8:0],2hm[8:0]/5hm[8:0],6hm[8:0]/1hm[8:0],7b/8b,,,,
{16}5b/6b/B7m/B8m/E8m,,,1b/2b/A3m/A4m/E4m,,,7b/8b/A5m/A6m/E6m/B5m/B6m,,3bz7[8:1]/4bs8[8:1],1hm[8:0]/6hm[8:0],2hm[8:0]/5hm[8:0],1hm[8:0]/6hm[8:0],3b/4b,,,,
{32}
1b,2,3,4,5,6,7,8,
1h[8:1],2hm[8:0],3hm[8:0],4hm[8:0],5hm[8:0],6hm[8:0],7hm[8:0],8hm[8:0],
1b,2,3,4,5,6,7,8,
1h[8:1],2hm[8:0],3hm[8:0],4hm[8:0],5hm[8:0],6hm[8:0],7hm[8:0],8hm[8:0],
{4}B2/B3/B7/B6/Ch[4:4],,,,8m,
