&title=Immaculate
&artist=ぺのれり
&first=0.02
&des=沨
&lv_5=14+
&inote_5=(200)
{4},,,,,,8,,1b-5<8-4>1[2:7]*-5>2-6<1[2:7],
{1},,,
{4},,,1xs5<1[2:7]*z5>1[2:7],
{1},,,
{4},,,1>4[4:6],,,,Cf,,,,
{4}8<5[4:6],,,,Cf,,,,
{4}1>4[4:6],E8,E7,E6,Cf,E6,E7,E8,
{4}8<5[4:6],E2,E3,E4,Cf,E4,E3,E2,
{8}1>4[4:6]/8,8,7,7,6,6,7,7,8x,8,7,7,
{16}8,7,6,,
{8}5,5,
{8}8<5[4:6]/1,1,2,2,3,3,2,2,1x,1,2,2,
{16}1,2,3,,
{8}4,4,
{8}C,E5,E8/B7,E2/B2,C,E1,E6/B6,B3/E4,E7,E3,E8,E2,
{16}E6,E5,E4,,E2/B2,,B7/E8,,
{8}4,5,4,5,3,6,3,6,2,7,1,8,
{16}2x,7x,2x,,
{8}1,8,
{8}1<7[8:1],6,1-3[8:1],5,1,8b,7-5[8:1],2,7-1[8:1],3,7,2b,
{16}7,8,7,,
{8}2,7,
{8}2-8[8:1],7,2>4[8:1],6,2,7b,7<5[8:1],2,7-4[8:1],3,7,2b,
{16}8,1,8,1,
{8}2/7,3b/6b,
{8}4h[32:1]/5h[16:1],,3,2,1,8,4h[32:1]/5h[16:1],,6,7,8,1,8h[16:1],7/2,6/3,5/4,8-6[8:1],1-5[8:1],8,1,8-4[8:1]b,1-3[8:1]b,8b,1b,
{8}5,6,7,8,4,3,2,1,
{32}1b-5[8:1]/8b-4[8:1],2/7,3/6,4/5,
{8},1b/8b,,7-3[8:1],8,7/1-5[8:1],2,1,7,8,1,8,1,2,3,
{8}1/8,1/8,2/7,2/7,3/6,3/6,4/5,4/5,
{16}1b,5,2,4,3,,8b,4,7,5,6,,1b,8,1,8,
{8}1b/7,7,5/7,7,1/3,3,3/5,3,
{16}1,8,1,8,2,7,2,7,3,6,4,5,3,6,4,5,
{4}1-3[4:1],3-5[4:1],5-7[4:1],7>2[4:1],2bx>5[4:1]b,5bx<1[4:1]b,1bx>7[16:3]b,,
{8}1/8,,,3/4,,,5/6,,,,
{24}8b/1bs5>1[4:9],E2/7,B2f/6h[8:1],B3,E4,,
{16},A8,D8,A7,D7,A6,,A7,D7,A6,D6,A5,,A8,D8,A7,D7,A6,,A7,D7,A6,D6,A5,,
{16}A8,D8,A7,D7,A6,D6,A5,D5,A4,D4,,,,,,
{8}8/7,,,4/5,,,1/2,,,,
{24}1b/8bz4<8[1:2]b,E8/2,B7f/3h[8:1],B6,E6,,
{16},A1,D2,A2,D3,A3,,A2,D3,A3,D4,A4,,A1,D2,A2,D3,A3,,A2,D3,A3,D4,A4,,
{16}A1,D2,A2,D3,A3,D4,A4,D5,A5,,,1,8,1,8,
{8}2b/7b,1,8,3b/6b,2,7,5b/2b,3,4,3b/8b,2,8,2b/7b,,1b/6b,,
{8}1bx/8bx,2,8,2b/7b,,,
{32}1b/8b,E2/E8,B2/B7,B6/B3,E6/E4,,,,
{16},,4,5,3,5,2,5,2,6,2,7,2,8,1,8,
{8}1bx,2,3,8b/1b,7,6,2b/8b,3,4,7b/1b,6,5,2b-7[8:1]/6b-3[8:1],3/7,2/6,,
{8}7/3,7/3,8/4,8/4,1/5,1/5,2/6,2/6,4/5,1b-4[8:1]/8b-5[8:1],1b/8b,
{32}1b/8b,E8/E2,B7/B2,B6/B3,E6/E4,,,,,,,,
{16}1-6[8:1]b,2,3,4,1>4[8:1]/5,,,,1,,8,7,6w2[8:1],,,,,,,,
{16}8b-3[8:1],7,6,5,8b<5[8:1],,,,8bw4[8:1],,,,
{4}8bx,
{8}1/2,1/2,3/8,3/8,1/7,1/7,2/6,2/6,
{32}1b-6[8:1]/7b-2[8:1],2/6,3/5,4,,,,,
{4}1bx>4[8:1]b/7bx<4[8:1]b,
{32}1bx/7bx,A6/A2,A5/A3,,,,,,
{16}8>2[8:1],7,6,5,8-3[8:1]/4,,6,,6/8-4[8:1],,7,,7/8>3[8:1],,6,,6-1[8:1]/8,,,,
{4}6-4[8:1]b*-3[8:1]b,6-8[8:1]b*-1[8:1]b,6w2[8:1],6bx,
{16}1,2,1,2,6,5,6,5,7,8,7,8,4,3,4,3,
{16}1bx,8,7,6,1bx-5[8:1],2,3,4,1bxw5[8:1]b,,,,1bx,,,,
{16}1,2,1,2,8,3,8,3,7,8,7,8,6,1,6,1,8,7,6,5,1,2,3,4,B8,B7,B6,B5,B1,B2,B3,B4,
{16}7x-4[8:1]/8x,,,8,7bx,,8,,
{16}2x-5[8:1]/1x,,,2,1bx,,8,,
{16}1,8,2,8,3,8,4,8,4,8,4,7,4,6,4,5,
{8}1-5[8:1],2,1/7pp4[4:1],6,7,,A4f,,
{8}8<6[8:1],1,8-4[8:1],1V35[4:1],8,1,,,
{8}7-4[8:1]b,1-5[8:1]b,7bx,1bx,8-4[8:1]b,2,8bx,2bx,
{4}1-5[8:1]/8-4[8:1],1<6[8:1]/8>3[8:1],1-4[8:1]b/8-5[8:1]b,
{32}1b/8b,E8/E2,B7/B2,B6/B3,E6/E4,,,,
{8}7-5[8:1],8,7x,3-8[8:1],4,3x,6<1[8:1],5,6x,2q6[8:1],1,2x,8<5[8:1],1,8bx,,
{8}2-5[8:1]b,1,2x,7<5[8:1]b,8,7x,3v8[8:1]b,4,3x,6<8[8:1]b,5,6,
{16}2-5[8:1],1,2-7[8:1],1,
{8}2x,2x,
{8}1-5[8:1],6,1x,8-4[8:1],3,8x,1-6[8:1],7,1x,8-3[8:1],2,8x,1,8,1b,8b,
{8}4hx[8:1]/5hx[8:1],,4/5,3h[8:1]/6h[8:1],,3/6,
{32}1x/8x,2x/7x,3x/6x,4hx[8:1]/5hx[8:1],
{8},,3,8,2,7,1,6,8,
{16}4hbx[8:1]/7hbx[8:1],,,3hbx[8:1]/6hbx[8:1],,,2hbx[8:1]/5hbx[8:1],,,,1bx,8bx,1bx,,2hbx[8:1]/7bxh[8:1],,,,1bxh[8:1],,,2bxh[8:1]/8bxh[8:1],,,3bxh[8:1]/7bxh[8:1],,,4bxh[8:1]/6bxh[8:1],,,5bx,,
{16}1xbh[8:1]/7bxh[8:1],,,4bxh[8:1]/5bxh[8:1],,,1bxh[8:1]/2bxh[8:1],,,,,,1bx/2bx,,3bx/8bx,,
{16}1,2,1,2,1,8,7,6,5/4,3,2,1,8/7,6,5,4,
{16}1b/2b,,,5b/6b,,,7b/8b,,,3b/4b,,,1b/8b,,2b/7b,,
{16}1,8,1,8,
{32}1h[32:3]/2,3,4,5,,,,,
{32}7/8h[32:3],6,5,4,,,,,
{16}1,8,1,8,
{16}1h[16:1],,4,3,8h[16:1],,5,6,
{16}2h[16:1],,4,3,7h[16:1],,5,6,
{16}2,6,1,5,8,4,7h[16:5],3h[4:1],
{4},
{32}8/4,1/5,2/6,3/7,4/8,1/5,2/6,3b>1s5>3[4:14]b/7b<5z1<7[4:14]b,
{1},,,,1z5V71<5[4:6]*s5V31>5[4:6]b,,
{4}1-5[2:1],8,7,6,8-4[2:1],1,2,3,
{8}7,5,6,3,5,2,6,2,7,3,8,2,
{16}1,B1,C,,
{8}4,5,
{8}2,7,3,8,1,6,4,7,2,6,3,7,
{16}8,B8,C,,
{8}5,4,
{8}3/6,5,4,3/5,4,3,2/4,3,2,1/3,2,1,8,7,1,2,
{32}1bx/8bx,,E8/E2,B7/B2,B6/B3,E6/E4,,,
{8},,,,,,
{4},,,
{16}5,4,3,2,
(204)
{1}1-4-8-5-1[4:13]*-6-2-5-1[4:13],,,,2v4>1q5V71[4:13]/8v6<1p5V31[4:13],,,,
{8}1h[8:1],,1h[8:1],8,2h[8:1],,2h[8:1],7,1h[8:1],8,2h[8:1],7,3h[8:1],6,4h[8:1],5,
{16}3>1[8:1],,3,4,3,,8b,,6<8[8:1],,6,5,6,,1b,,
{16}1,8,1,8,1,8,1,8,2,7,1,8,2,7,1,8,
{8}1/2,1/2,2/3,2/3,3/4,3/4,4/5,4/5,
{4}1w5[8:1],1b,8w4[8:1],8b,
{8}1-7[8:1],5,1-3[8:1],5,1b-7[8:1],5b,1b-3[8:1]*-4[8:1],5b,
{4}1b-7[8:1]*-6[8:1],1bw5[8:1],1bx,
{16}8,1,8,1,
{16}8bx,2,7,3,6,4,5,3,4,2,4,2,5,3,6,4,7,5,7,4,6,2,5,1,6,8,7,8,6,1,8,2,
{16}1,2,1,2,4,3,4,3,7,8,7,8,6,5,6,5,
{32}1w5[8:1],8x,7x,6x,5x,4x,3x,2x,
{4}1bx,
{32}B1,B2,B3,B4,B5,B6,B7,B8,E1,E2,E3,E4,E5,E6,E7,E8,
{4}E1/Cf,
{16}1,8,1,8,2,7,3,6,4,5,4,5,2/8,,1,1,1,2/8,,1,2,8,3,7,4,6,5,
{16}1,2,3,4,8,7,6,5,2,3,4,5,7,6,5,4,,
{32}2,3,4,5,6,7,8,1,2,3,4,5,6,7,8,1,2/7,6,5,4,3,2,1,8,7,6,5,4,3,2,1,8,
{16}7,2,7,2,8,1,8,1,
{16}7,1,6,2,5,3,6,4,7,2,7,2,6,2,6,3,5,4,5,4,6,3,7,2,
{32}8h[8:1]/1b,2,3,4,5,,,,,,,,1h[8:1]/8b,7,6,5,4,,,,,,,,1bz5[4:3]*s5[4:3],2/8,3b/7b,4/6,5b,,,,
{4},,,,C,,,,
{1}8-5[8:11],1-4[8:3]b,
{8}8>2[8:1],7,6,5<8[8:1],4,3,2>5[8:1],1,8-3[8:1],7-4[8:1],8,7,
{16}2V41[6:1],1,2,1,2b,,,,
{8}7-2[8:1],6,5,4-7[8:1],3,2,1-4[8:1],8,7,6,2,3,
{16}7V51[8:1],8,7,8,7b,,,,
{8}2-8[8:1]b,6,2-5[8:1]b,7,2V41[8:1]b,6,2,7v5<1[16:5]b,2,7,2,3,
{16}1x,2,3,4,
{8}5/1b,2,
{8}7-1[8:1]b,3,7-5[8:1]b,2,7V51[8:1]b,3,7,2v4>8[16:5]b,7,2,7,6,
{16}8x,7,6,5,
{8}4/7b,6,
{16}1b,2,3,4,6b,7,8,1,3b,4,5,6,8b,7,6,5,1b,2,3,4,5,6,7,8,1/7b,6,5,4,3,2,1,8,
{16}2b,3,4,5,1b,8,7,6,8b,1,2,3,7b,6,5,4,
{16}2b,3,4,5,6/1b,8,7,6,5/8b,1,2,3,4/7b,6,5,4,
{16}1,5,2,6,3,7,4,8,3,7,2,6,1,5,2,6,
{16}1/5,2,3,4,1/5,6,7,8,1/5,2,3,4,1/5,6,7,8,
{12}2,4,3,7,5,6,1,3,2,8,6,7,1b,2,3,5b,6,7,2b,3,4,6b,7,8,
{16}A1,A5,A2,A6,A3,A7,A4,A8,
{32}B1,B2,B3,B4,B5,B6,B7,B8,A1,A2,A3,A4,A5,A6,A7,A8,
{8}1x,8x,1,8,1,1,1,1,
{8},,,
{24}1bs5z1-3-5-7-1[8:27]*>1[8:27]b,2/8,3/7,4/6,5b,,
E
