&title=ZERO-ONE
&artist=Mr.T
&first=0.08
&des=白-ster
&demo_seek=24.2
&lv_5=14.1
&des_5=
&inote_5=
(160){4},3h[4:1]/2-8[8:1],,5h[4:1]/6-1[8:1],
,7h[4:1]/8-2[8:1],,1h[4:1]/2-4[8:1],
{8},,3,{16}3,4,,4,{8}5,6,{16}6,5,
,5,{8}4,2,{16}2,1,,1,{8}8,7,{16}7,8,
,8,{8}1,3h[2:1],4,{4}6h[8:1],{8}6h[2:1],5,
3h[8:1],{16},,,,6,4,,3,{8}5,3,{16}3,5,
,6,{8}4,7,{16}7,1,,2,{8}8,6,{16}6,4,
,3,{8}5,{16}3,4b,3,4,{8}3,{16}2,2,,8,{8}7,
{16}6,1,6,1,8,8,,,{8}2/6,{16}3,4,,4,{8}5,
5-1[8:1],3,{16}5,2,,3,{8}4-8[8:1],6,{16}4,7,,6,
{8}5v2[8:1],4,5,3,1-6[8:1],2,1-4[8:1],2,
{4}1,{16}2-8[8:1],4,,6,2,6,,6,1-3[8:1],8,,8,
1,8,,,5,3,,4,{8}6<8[8:1],3,{16}6,3,,,{8}3-8[8:1],
6,3/4,5,{16}6,1,6,1,{8}6,5,
{16}4,3,4,3,{8}4,2,{16}1,8,1,8,{8}1,2,
{16}3,4,3,4,3,4,5,6,{8}7,{16}1,2,,2,{8}4,
{16}6,5,6,5,6<8[8:1],,,4,{4}6,{16}3>1[8:1],,,5,
{4}3,{8}8-4[8:1],1,2/8,{16}3,3,,,,,,,{8}7,
{16}6-4[8:1],,,3,{4}6,{16}3-5[8:1],,,6,
{4}3,{8}1-4[8:1],8,7/1,{16}6,6,,,,,{8}8/1-5[8:1],
3,{16}1/7,7,,,3h[4:1],,,,,5,{8}3,
{16}6,4,,,6,5,,5,{8}4,{16}3,4,{8}3,{16}2,6,
{8}2-5[8:1],3,{16}2/8,8,,,{4}6/4,{16}3,1,{8}3,
{16}3,5,{8}3,{16}7,8,7,8,{8}7,{16}2,1,,3,4,3,
4,3,{8}4,5-8[8:1],2,{16}5,3,,,{8}4-1[8:1],7,
{16}4<7[8:1],6,,,{8}4/1,2,3,{16}4/7,4/7,,,,,,,{8}6,
5-8[8:1],2,{16}5,3,,,{8}4-1[8:1],7,
{16}4<7[8:1],6,,,{8}4/1,2,3,{16}4/7,4/7,,,,,{8}6/2>4[8:1],
8/4,{16}2/6,6,,,{8}5,5,{16}3,4,{8}3,
{16}3,1,{8}3,{16}6,5,{8}6,{16}6,8,{8}6,{16}1,8,{8}1,
6/2>4[8:1],8/4,{16}6/2,6,,,{8}5,5,{16}3,4,{8}3,
{16}2,1,{8}2,{16}2,8,2,8,3,7,3,7,4,6,4,6,
5,5,5,5,{4}5b,,,,2b,
,,,7b,
,,,4,
4,5,
{8}6/3,2,{16}7,8,{8}6,{16}1,8,,2,{8}1,{16}3,4,
3,4,{8}3,{16}1,7,1,7,2,8,{8}2,{16}1,3,,2,
4,2,5,2,6,3,,5,3,5,3,6,{8}3,{16}2,8,
{8}2,1/2,{16}6,5,,7,{8}4,{16}8,3,1,2,8,3,
1,2,1,2,1<7[8:1],3,,2,{8}1,2,1/6,{16}7,8,
6,1,{8}5,{16}4>2[8:1],5,,6,4,6,,,{8}1/7,{16}8,6,
8,5,{8}8,{16}3,4,{8}3,{16}2,1,{8}2,7/8,1/6,
{16}3,5,{8}3,{16}2,8,{8}2,{16}6,5,{8}7,{16}3,4,{8}2,
{16}8>2[8:1],3,,4,{8}8,3,8/3,{16}2,1,3,8,{8}4,
{16}5<7[8:1],4,,3,5,3,,,{8}8/2,{16}1,3,1,4,{8}1,
{16}6,5,{8}6,{16}7,8,{8}7,2/1,8/3,{16}6,4,{8}6,
{16}7,1,{8}7,{16}3,4,{8}2,{16}6,5,{8}7,{16}2,1,2,1,
{4}2b,{8}7/8-4[8:1],{16}6,2,8,1,,,{8}2/1-5[8:1],{16}3,7,
1,8,,,{8}4/3-8[8:1],1,3/5,{16}6,6,,,,,{8}3/4,
2,3/1<7[8:1],{16}6,3,{4}1,{8}6/8>2[8:1],{16}3,6,
{4}8<5[8:1],{8}8/1,3,2/4,{16}8/7,8/7,,,,,{8}2/1-4[8:1],
7/2,{16}1,8,,,6,5,{8}7,{16}3,4,3,4,
2,5,2,5,1,6,1,6,8,7,{8}8,{16}3>1[8:1],4,{8}2,
3p7[8:1],4,{16}3/1,1,,,6,5,7,4,6,3,6,2,
7,1,7,1,{8}7,{32}2b/8b-4[8:1],3,4b,5,{8}6b,8/2,3,{16}5,3,
5,3,5,2,5<7[8:1],1,,2,{8}5,3,{16}2-5[8:1],1,,8,
{8}2,6,{16}7-4[8:1],3,,1,{8}7,2,{16}3,5,,6,
{8}4,{16}2,1,2>4[8:1],8,,7,{8}2,8,{16}7,2,,3,
{8}6,{16}7,8,7-4[8:1],1,,,{8}7/8,1,{16}3,5,,7,
{8}2,{16}1,8,2>5[8:1],7,,,{8}1/2,8,{16}7,3,,2,
{8}8,{16}6,1,7-3[8:1],2,,,{8}7/1,1,{16}2,4,,5,
{8}3,{16}7,8,6>4[8:1],1,,,{8}6/3,2,{16}1<6[8:1],6,,,{8}1/2,
3,{16}4b,5,3,6,2,7,3,6,,1,{8}8,
{16}2b,2,2,2h[32:1],
E
