&title=RED HOUR
&artist=ariiol
&first=0.2
&des=RAD DOG
&lv_5=14+
&des_5=RAD DOG
&inote_5=
(151.9){48}2/6,3h[48:11],,,,,,,,,,,{4}6,7/4,{8}2/7,{48}6/3,5h[48:17],,,,,,,,,,,,,,,,,{4}1,
{8}1/5,2,{48}3/6,4h[48:5],,,,,,,,,,,7/4,
6h[48:11],,,,,,,,,,,{4}3,{8}2/5,6,7/2,3,
4/1,4,4/8,4,4/7,4,{48}6/4-8[12:1],3,,,,,{8}6xh[48:1],
{4}4b,{8}2/6,{16}3,5,3,6,3,5,{8}3,{48}3/7,6h[48:17],,,,,,,,,,,,,,,,,{8}4,
{16}4,6,{8}3h[8:1],{16}5,3,{4}6h[8:1],
{48}7/4,3h[48:11],,,,,,,,,,,{16}5,3,5,2,5,3,{8}5,5/3,2,
{48}1/7,6h[48:11],,,,,,,,,,,{4}2,{48}2/6,3h[48:11],,,,,,,,,,,{4}5,
{16}3x,4,{8}2h,{16}3,4,{8}2h,{16}3,4,2,5,3,4,{8}2,
{16}6,5,{8}7h,{16}6,5,{8}7h,{16}6,5,7,4,6,5,{8}7x,
{16}2x,4,{8}2,{16}3,4,{8}3,{16}2,4,3,5,2,4,{8}3,
{16}7,5,{8}7,{16}6,5,{8}6,{16}7,5,6,4,7-4[12:1],5,{8}6,
1x/7x,1,2,2,{48}3/6,5,,,,,{8}3,4,4,
5,5,6,6,{48}7/3,4,,,,,{8}7,8,8h[16:1],
{16}3h[32:1],5h[32:1],4h[32:1],5,3,5,1h[16:1],8,4h[32:1],6h[32:1],5h[32:1],6,4,6,1h[16:1],8,
{4}2x/7xh[4:1],{16}1,1,1,1,{8}1w5[12:1],7/3,{4}Cf,
{48}7bx/4bx,3xh[48:11]/6>4[16:1],,,,,,,,,,,{8}6b,{16}1,2,{8}3-8[12:1],2/6V47[6:1],3b,6,
{16}8-3[12:1],,,7,{8}8b,{24}7xh[48:1],6xh[48:1],5xh[48:1],{8}4x-2[12:1],7-5[12:1],4b,7,
{48}2b>5[12:1],1,,,,,,,,{16}7,{8}2b,{16}6pp1[4:1],5x,{8}4x-2[12:1],6,{4}4b-7[12:1]*-8[12:1],
4b-2[12:1],{8}4b,{24}8xh[48:1],7xh[48:1],6x,8xh[48:1],1xh[48:1],2xh[48:1],{48}6b/3x,5,,,,,,,,7b/3b,4,,,,,,,,7b/1b,
6h[48:11]/2>4[16:1],,,,,,,,,,,{8}2b,{16}8,7,{8}6-8[12:1],3V51[8:1],6b,3,
8<6[12:1],{24}1xh[48:1],2xh[48:1],3xh[48:1],{12}8b/4xv2[12:1],{24},,5h[48:1],4h[48:1],{4}5<8[12:1],{8}5b,2,
{48}2/8b<5[12:1],7,,,,,,,,{16}4,{8}8b,{16}4pp7[4:1],3x,{8}2x-8[12:1],4,{4}2b-5[12:1]*-6[12:1],
2b-8[12:1],{8}2b,{24}7xh[48:1],6xh[48:1],5x,7xh[48:1],8xh[48:1],1xh[48:1],{48}5b/2x,4,,,,,,,,7b/3b,4,,,,,,,,7b/1b,
6h[48:11]/2>4[16:1],,,,,,,,,,,{8}2b,{16}8,8,{8}4-1[12:1],6-2-5[8:1],4b,6,
{16}1<6[12:1],,,3,{48}1b/4h[8:1],,,,,,,5xh[48:1],,{16}4xh[48:1],{8}6x-2-8[8:1],8-5-3[8:1],6b,3,
{16}2h[16:3],,,3,,,1,1,{8}5-8[12:1],3-7-4[8:1],5b,3,
{16}8>3[12:1],,,6,{48}8b/5h[8:1],,,,,,,4xh[48:1],,{16}5xh[48:1],{48},,,,,,6b/3b,4,,,,,,,,2b/6b,5,,,,,,,,2b/8b,
3h[48:11]/7<5[16:1],,,,,,,,,,,{8}7b,3,4/5,3,1/2b,8,
7/5,{48}6x,4x,6x,4x,,,{8}5/3,4/2,3/5h[16:1],6/4,7/5,6h[12:1]/4h[24:1],
{16}3h[32:1],5h[32:1],4h[32:1],5,3,5,1h[16:1],8,4h[32:1],6h[32:1],5h[32:1],6,4,6,1h[16:1],8,
{4}2x/7xh[4:1],{16}1,1,1,1,{8}1w5[12:1]*w5[12:1],7/3,{4}Cf,
{2}3-8[12:1]/7-2[12:1],{16}6h[16:3],,,5h[16:3],,,{8}4h[8:1],
{4}3V52[8:1],8-5[12:1],{16}2h[16:3],,,4h[16:3],,,{8}6h[8:1],
{4}1V74[8:1],5-3[12:1],{16}6h[16:3],,,2h[16:3],,,{8}8h[8:1],
{4}4-7[12:1]*v1[12:1],4,{16}1<6[12:1],,,2,{8}D8h[48:1],3,
{48}5x-2b[12:1],4x>8[48:5],{4},{16},,,{48},{16}7h[16:3],,,6h[16:3],,,{8}5h[8:1],
{4}4V61[12:1],8v3[12:1],{16}1h[16:3],,,4h[16:3],,,{8}7,
{4}8<5[12:1]/5v2[12:1],5/8,1>4[12:1]/4v7[12:1],4/1,
{32}7/4,6,5,4,3,2,1,8,{16}7/4xqq1[16:5]*pp7[16:5],3x,2x,1x,,,,,,,,,{4}2bxqq8[4:1],
8pp2[4:1],2qq8[4:1],8p2[4:1],
{8}2q8[4:1],1x,8p2[4:1],1x,2q8[4:1],1x,8,1x,
{4}1bxqq7[4:1],7pp1[4:1],{8}1qq7[4:1],8x,7p1b[4:1],8x,
{48}1bxq7b[4:1],2x,,,,,,,,,,,7bxpp2[4:1],6x,,,,,,,,,,,{8}6,5,4,4,
{16}2x,4,{8}2,{16}3,4,{8}3,{16}2,4,3,5,E2,4,{8}3,
{16}7,5,{8}7,{16}6,5,{8}6,{16}7,5,6,4,E8,5,{8}6xh[16:1],
{16}1,7,2h[16:1],8,1,6,3h[16:1],8,2,6,4h[16:1],7,2,6,{8}4h[16:1],
{48}7/4V68[12:1],6/3,{24}5/2,{48},,,,,,,,1/4,2,{24}3,{96},,,,,,,,,,,,,,,,{32}7,6,5,4,3,2,1,8,{4}3-7[2:7]/7-3[2:7],
{1}3b/7b,
,,{4},,,{16}1,
1,1,1,
{4}2/8,{8}7,{48}6/2,5h[48:11],,,,,,,,,,,,,,,,,{8}6,{48}3/7,4h[48:11],{4},{16},,,{48},6/3,
4h[48:17],,,,,,,,,,,,,,,,,6,5h[48:5],,,,,,,,,,,2/5,
6h[48:11],,,,,,,,,,,,,,,,,7/4,3h[48:11],,,,,,,,,,,,,,,,,{8}4/6,7,
{48}8/2,3h[48:11],,,,,,,,,,,{8}7,2,{48}7/3,6h[48:11],,,,,,,,,,,{4}4,
{16}3x,4,{8}2h,{16}3,4,{8}B1,{16}3,4,2,5,3,4,{8}2,
{16}6,5,{8}7h,{16}6,5,{8}B8,{16}6,5,7,4,6,5,{8}7x,
{16}2x,4,{8}2,{16}3,4,{8}B3,{16}2,4,3,5,2xh[16:1],4,{8}3,
{16}7,5,{8}7,{16}6,5,{8}B6,{16}7bx,5,6,4bx,7x-4[12:1],5bxh[16:1],{32},4x,3x,2x,
{8}1x/7x,1,2,2,{48}3/6,5xh[24:1],,,,,{8}3,4,4,
5,5,6,6,{48}7/3,4xh[24:1],,,,,{8}7,8,8h[16:1],
{16}3h[32:1],5h[32:1],4h[32:1],5,3,5,8h[16:1],7,4h[32:1],6h[32:1],5h[32:1],6,4,6,2h[16:1],1,
{4}3x/8x,8xpp2[4:1]/3xqq1[4:1],,,{48}3b/7b,
4h[48:11]/6<1[16:53],,,,,,,,,,,{8}5,{16}4,4,,,{8}5,{16}4,5,{8}3,
{16}5h[6:1],,,3,,,4,4,,,4,5,3,5,{8}4,
{48}3,4h[48:7],,,,,,,,{16}5,,,4,4,,,4,5,3,5,{8}4,
{48}2b,3h[24:5],,,,,,,,,,,6b,5h[48:11],,,,,,,,,,,{8}D1/A1/E1/A8,{48}6b/2,3,,,,,,,,7b/3,4,,,,,,,,8b/4,
5,{24}6,,,,,{8}2/6,{16}3,5,3,6,3,5,{8}3,{48}3/7,6h[48:17],,,,,{4}3,
{8}4,{16}4,6,{8}3h[8:1],{16}5,3,{4}6h[8:1],
{48}7/4,3h[48:11],,,,,,,,,,,{16}5,3,5,2,5,3,{8}5,5/3,2,
{48}1/7-4[12:1],6,,,,,,,,,,,7/1-5[12:1],2,,,,,,,,,,,1/8-4[12:1],7,,,,,,,,,,,{24}8/1,2,3,5,6,7,
8,Cf,,,,,{8}2b-8[12:1],7-3[12:1],2,7,2bV48[8:1],8-5-1[8:1],
{6}2,{12}7,7b<4[12:1],{24},8h[48:1],1h[48:1],2h[48:1],{8}3qq8b[4:1],3,3/4b-7[12:1],5,
4,{16}1,1,{8}6b-1[12:1],2-7-4[8:1],6,2,8b>3[12:1],5,
{4}8b/4h[8:1],{8}5b<8b[12:1],1,{32}1/5,2,3,4,5,6,7b,8,1/5,2/6,3/7,4/8,5b,6,7,8,
{4}1b-4[12:1],{8}1b-7[12:1]/6-2[12:1],7,{4}1/6-3b[12:1],{8}6-8[12:1]/1-5[12:1],8,
{48}1/6,,,,,,,4h[48:1],,3h[48:1],,2h[48:1],,,,,,,{16}8,8,{8}7-4[12:1],1-5[12:1],7,{48}1,B1,C,B5,,,{8}8V64[4:1],
2h[16:1],4V61b[4:1],3h[16:1],1-6-3[4:1]*-6-3[4:1],2h[16:1],{4}3,
1h[8:3],{12}5h[8:1],{24},,2/6,3/7,{8}8/4h[8:1],8,{16}7,3,{24}6,2,{48},,7b/1b,
2b/6b,{24}3bh[12:1]/5bh[12:1],
E
