&title=ゴールドビジョン
&artist=Pizuya's Cell
&first=0
&des_5=BackDancers
&lv_5=14
&des=BackDancers
&inote_5=(208){4},{1},{4},{16},2/8,
,8/2-5[8:1],,,,2/7p3[8:1],
,,,7/1>4[8:1],,,,1/8,,,,6,,5x/7xh[4:1],,,,1,
,8x/2xh[4:1],,,,8,{32},,8bxqq5<3[8:13]/1bxpp4>6[8:13],2/7,3/6,4/5,{1},{4},,,{16},,2x/4,
,3,,3,,2x/8x,
,1,,1,,7x/5x,,7,,4,6,4,6,4,6,4,
6,3,5,3,5,3-8b[8:1],5,3,5,3b/E3f,,7,,6,,5h[4:1],
,,,1-7q3<5[8:3],,,,1,,,,6<1p4[8:3],,,,6,
,,,3,,3,,,,3/5,,3/5,,2,,1-3[8:1],
,,,1b-6[8:1],,,,1b-4[8:1],,,,1bpp5[2:1]*qq5[2:1],,,,1b,
,,,,,,,,,7xh[1:1],,,,B4,,B5,
,,,,,,,,,1h[1:1],,,,B6,,B5,
,,,,,,,,,B8,,,,,,C,
,,,,,,,E3/B3/A3,,,,,,E5,,,,A6/E7/B6,
,,,,,,,2>6[8:5],,,,,,C,
,,,,,,,,,8<4[8:5],,,,,,C,
,,,,,,,,,A1,,,,,,C,
,,,A6,,,,A3,,,,,,,,,,1,
,1h[8:3],,,,,,8-6[8:1],,,,8,,,,1-5[8:1],
,6,,1,,,,7<4[8:1],,,,7,,,,8-3[8:1],
,5,,8,,,,6h[4:1],,,,,,7h[4:1]/5-2[8:1],
,,,5,,,,1/7v4[8:1],,,,7,,1s5[4:1],,,,6,
,6>7[2:1],,,,1xh[2:1],,,,,,,,,,,,8/2>1[2:1],
,2,,5xh[2:1],,,,,,,,,,,,7/1,
,7<4[8:1],,1,,1-5[8:1],,,,8p4[8:1],,,,8/3V17[4:1],
,,,3,,6h[8:3],,,,,,5,,5,
,6,5,6,5,7,4,7,4,8bx<5[8:1],,,,1,,2b>5[8:1],
,,,8,,7b-5[8:1],,,,7,,3h[8:1],,4,,5/3h[8:1],
,,,6/3h[8:1],,6,,7/2,,1bx>4[8:1],,,,8,,7b<4[8:1],
,,,1,,2b-4[8:1],,,,2,,6h[8:1],,5,,4/6h[8:1],
,,,3/6h[8:1],,3,,2/7,,1-5b[8:1],,,,7/1,,,,8-4[8:1],
,,,8/2,,,,1v6[8:1],,,,1/8,,,,7p3[8:1],
,,,8/7,,,,2-5[8:1],,1,,2,,7-4[8:1],
,8,,7,,1-4[8:1],,8,,1,,6-1[8:1],,5,,6,
,2x-5[8:1],,8x,,2x,,,,8bx<5[8:1],,,,1,,2b>5[8:1],
,,,8,,7b-5[8:1],,,,7,,3h[8:1],,4,,5/2h[8:1],
,,,6/1h[8:1],,7,,2/8,,1bx>4[8:1],,,,8,,7b<4[8:1],
,,,1,,2b-4[8:1],,,,2,,6h[8:1],,5,,4/7h[8:1],
,,,3/8h[8:1],,2,,7/1,,2-4[8:1],,5,,2-8[8:1],,7,
,2-6[8:1],,5,,2,,8-2[8:1],,5,,8-6[8:1],,3,,8-4[8:1],
,5,,8,,2,,2,,1bx/7bx,,3,,5,,6bh[4:1]/4b-1[8:1],
,,,4b,,7,,8bx-4[8:1]/1bx-3[8:1],,,,8b-6[8:1]/1b-5[8:1],,,,8b/1b,
,,,3,,3,,3,,5,4,6,,6,,4,
5,3,,3,,6,4,5,3,6bx,,7,,2/8,,3,
4,2,,1/5,,8,,6,,3/5,,2,,1/7,,6,
5,7,,4/8,,1,,3,,5/2bx<7[8:1],,3,,4,,5bx>2[8:1],
,6,,7,,8bx<5[8:1],,1,,2bx-5[8:1]*-7[8:1],,,,2x,,,,8x,
,8x,,1,,7,,4x/6x,,3,,2/8,,1,
7,1,,6,,7/4,,4,,5x/3x,,6,,7/1,,8,
2,8,,3,,2/5,,5,,4-2[8:1]*-8[8:1],,,,4,,,,1x/7x,
,1x/7x<4[8:1],,,,7b/1q5[8:1],,,,1b/8p4[8:1],,,,8b/2-5b[8:1]*-6b[8:1],
,,,2b/B2f,,,,,,4x/6x,,4,,3/5,,6,
5,7,,8/3,,2,,1/7,,6x/2x,,5,,5/3,,3,
4,2,,1/6,,7,,8/2,,1bx>4[8:1],,8,,7,,6bx<1[8:1],
,5,,4,,3bx<6[8:1],,2,,1bx-4[8:1]*-6[8:1],,,,1b,,,,3b/7b,
,3b/7b,,4,,2/6,,3x,5,3,5,3,5,3,
5,3,5,3,5,3,5,3,5,3h[8:1],,4,,5h[8:1],,4,
,4/6h[8:1],,,,5/7h[8:1],,5,,4/8<4[4:1],,,,4V61[4:1],,,,3,
,,,3,,,,2>4-6[4:1],,,,6-3-8[4:1],,,,7,
,,,7,,,,6,,5,,4,,3,
,4,,5,,6,,7h[4:1],,,,5,,7,,5,
,6>3[8:1],,,,6,,,,1,,1h[8:1],,8,,7<4[8:1],
,,,3,,2,,1>4[8:1],,,,6,,7,,8<5[8:1],
,,,1,,2-5[8:1],,,,8b,,8b-4[8:1],,,,3b-1[8:1]*-7[8:1],
,,,3b,,,,8bx-4-8b[4:1],,,,8bx,,,,,,,,,,C,
,,,3,4,3,4,3,4,3,
4,2,5,2,5,2,5,2,5,1,6,1,6,1,6,1,
6,8,7,8,7,8,7,8,7,1x,2,3,4,5x/1x,8,7,
6,1x/5x,2,3,4,5x/1x-3-5-7-2[8:7],8,7,6,1bx/5x,,,,,,,,,,,,,,,,Cf,
{1},{4},,,{16},,,4,
5,4,,6,{8}3h[16:27],
{16},,,,,E7,,,,,,C,,,,,,B6,
,,,E6,,,,5b,,,,4x,3,2,
1,4x,3,2,1,5x,4,3,2,8x/1x,7,6,5,8x,7,6,
5,1x,8,7,6,5x/4x,3,2,1,8,,E6/D6,,E4/D4,,D8/E8,
,D2/E2,,E7/D7,,E3/D3,,C,,,,1bh[8:1],,7h[8:1],,5h[8:1],
,6h[8:1],,4h[8:1],,5h[8:1],,3,,,,2x,3,8x,7,3x,
4,7x,6,3x,4,7x,6,5bx,,,,3,4,3,4,2-5[8:1],
,,,7,,7,,7,,5x/7xh[4:1],4,3,2,1,,8x/6xh[4:1],
1,2,3,4,,6x/3xh[4:1],7,8,1,2,,1x/4xh[4:1],8,7,6,5,
,4x>2[8:1]*<6[8:1],,,,4xw8[8:1],,,,4bx,,,,,,,,4/6h[4:1],
,3,,2,,7/1h[4:1],,,,8,,7/1,,6/2,
,3h[4:1],,5,,4,,,,3,,3,,4,,2>5[8:1],
,,,6,,7,,8<5[8:1],,,,3,,2,,1>4[8:1],
,,,6,,7,,8,,8h[8:1]/2h[8:1],,,,5h[8:1]/3h[8:1],,,,7h[8:1]/4h[8:1],
,,,6h[8:1]/2h[8:1],,,,3/5h[8:1],,3,,6/4h[8:1],,6,
,5/7h[8:1],,5,,8/6h[8:1],,8,,7bx/1bx,,1b/7b-4[8:1],,,,3b>8[8:1],
,,,6b>3[8:1],,,,2bq6[8:1],,,,8b,,,,7,
5,7,,7h[8:1],,5h[8:1],,4h[8:1],,2x,,2,,2/4,,2,
,6,,6,,6/4,,6,,3,,3/5,,6,,6/4w8[8:1],
,,,4,,,,,,1b/8b,,,,,,3,
4,2,,2h[8:1],,4,,4,,3h[4:1],,,,5,,,,5/3,
,3,5,3,5,3,5,3h[4:1],,,,,,5,
4,6,,6h[4:1],,4,,4,,3-8[8:1],,,,6qq1[4:1],,,,2,
,,,,,8x/2x,,,,,,,,3,
4,2h[8:3],,,,,,8,1,7h[8:3],,,,,,5,
6,4h[8:3],,,,,,,,7<4[8:1]/4>1[8:1],,,,7/4-8-4b[4:1],,,,4x,
,,,,,7/1,,,,2b/4b,,,,7b/5b,
,,,1b/8b,,,,,,5x/3x,,5,,6/4,,3,
4,2,,1/6,,7,,8/2,,3x/7x,,4,,4/6,,6,
5,7,,8/3,,2,,1/7,,8bx<5[8:1],,1,,2,,3bx>8[8:1],
,4,,5,,6bx>3[8:1],,7,,8bx-5[8:1]*-3[8:1],,,,8b,,,,6b/2b,
,6b/2b,,5,,7/3,,6x,4,6,4,6,4,6,
4,6,4,6,4,6,4,6,4,6h[8:1],,5,,4h[8:1],,5,
,5/3h[8:1],,,,4/2h[8:1],,4,,5/1>5[4:1],,,,5-3-8[4:1],,,,6,
,,,6,,,,7<5-3[4:1],,,,3-6-8[4:1],,,,2,
,,,2,,,,3,,4,,5,,6,
,5,,4,,3,,2h[4:1],,,,5,,2,,5,
,3-6[8:1]*-8[8:1],,,,3,,,,7x/1x,,7<4[8:1],{48},,,,,,,,,8/7,B8f,C,
{16}B4,,,5x,,4,,3,,2x/8x,,2>5[8:1],{48},,,,,,,,,1/2,B1f,C,
{16}B5,,,4x,,5,,6,,7/1,,1/7,,2,,5/3h[4:1],
,,,C/B5/B6,,,,8/2,,,,6/4,,7/3,,,,3,
4,3,4,3,4,3,4,2x/5x,,5x/2x,,6x,,1x/7xh[4:1],
,,,C/B3/B4,,,,4/6,,,,2/8,,3/7,
E
