&title=スーサイドパレヱド
&artist=ユリイ・カノン
&first=-0.667
&des=生と死の乱聲。
&lv_5=14
&inote_5=(176)
{1},
{1},
{16}7/8,,8-4[8:1]/1,,,,8/3V52[16:3],,,,,,,,,,
{16}2/1,,1-5[8:1]/8,,,,1/6V47[16:3],,,,,,,,,,
{16}5/7,,4-8[8:1]/8,,,,4/7V16[16:3],,,,,,,,,,
{16}4/6,,3/5-1[8:1],,,,5v8[16:3]/3q7[16:3],,,,,,,,,,
{16}7b-4[8:1]/1b,,,,7/1,,2,,3,4,3,,2/5,,1/6h[4:1],,
{16},,8-4[8:1],,6,,8,,7,7,5,,8,,4,,
{16}2b-5[8:1]/6b,,,,2/8,,7,,6,5,6,,4/7,,3h[4:1]/8,,
{16},,1-5[8:1],,3,,1,,2b,,,1b/7b,,,2b/6b,,
{16}5b-3[8:1]/3b,,,,6,,,,5-2[8:1],,,,6,,,,
{16}5-1[8:1],,6,,7,,,,5-1[8:1],,6,,7,,,,
{16}2,1,3,,7,5,6,,3,5,4,,8,6,7,,
{16}1,4,2,5,3,6,4,7,5-1[8:1],,6,,5/7,,,,
{16}2b-5[8:1]/6b,,,,1-6[8:1],,1,,3-8[8:1],,3,,5,,5,,
{16}1-4[8:1],,6,,7,,8,,1<6[8:1],,4,,3,,2,,
{16}1,5,2,,7,4,6,,2,5,3,,6,4,5,,
{16}2,6,2,7,2-5[8:1],,8-4[8:1],,2,,8,,1-5[8:1],,,,
{16}1/6,,7,,4-8[8:1],,8,,4b,,7-3[8:1],,,,7/8,,
{16},,2,2,5,,3,3,6<1[8:1],,4,,6/5,,,,
{16}1/2,,3,,8-4[8:1],,4,,8b,,3-7[8:1],,,,3/4,,
{16},,6,6,1,,7,7,2>5[8:1],,8,,1/2,,,,
{16}5/6,,7,,4-8[8:1],,8,,4b,,7<4[8:1],,,,7/8,,
{16},,1,1,4,,2,,3v8[8:1]/5v8[8:1],,,,3/5,,,,
{16}1,4,2,,8,5,7,,2,4,3,,7,5,6,,
{16}1/5,,1/5,,2/6,,2/6,,3/7,,,,4>1[8:1]/8<5[8:1],,,,
{16}8b-4[8:1]/4b,,,,8/6<1[8:1],,,5,6,,4-8[8:1],,,,4/7qq4[8:3],,
{16},,8,,1,,2,,3>8[8:1],,,,3/4,,,,
{16}5-1[8:1],,,2,5,,3,,4/8,,4>1[8:1]/8<5[8:1],,,,4/8V25[32:7],,
{16},,5,,6,,7,,8-4[8:1],,4b,,8b,,,,
{16}1-5[8:1]/8,,,,1/3>8[8:1],,,4,3,,5-1[8:1],,,,5/2pp5[8:3],,
{16},,1,,8,,7,,6<1[8:1],,,,5/6,,,,
{16}3,4,1,,7,4,6,,2,5,3,,4/6,,3/7,,
{16}2,1,2,1,2,,7,8,7,8,7,,2-4[8:1]/1-5[8:1],,,,
{16}2b-6[8:1]/1b,,,,2/5<8[8:1],,,4,5,,3-7[8:1],,,,3-5[8:1],,
{16}5-1[8:1],,3,,6,,7,,8-4[8:1],,1,,2-6[8:1]/8,,,,
{16}2>5[8:1],,5,5,2-6[8:1],,6,6,2,,8V61[4:1],,,,1-5[8:1],,
{16},,2,,2,,3,,4-8[8:1],,8b,,4b,,,,
{16}7-3[8:1]/8,,,,7/4>1[8:1],,,5,4,,6-2[8:1],,,,6-4[8:1],,
{16}4-8[8:1],,6,,3,,2,,1-5[8:1],,8,,7-3[8:1]/1,,,,
{16}7<4[8:1],,4,4,7-3[8:1],,3,3,7,,2,,1/5,,6/8,,
{16}7,8,7,5,7,,2,1,2,4,2,,8-4[8:1],,,,
{16}8b/1b,,,,2-5[8:1],,2,,6-1[8:1],,,,2-5[8:1],,2,,
{16}6,,,7,5,,8,,1-5[8:1],,2,,1/3,,,,
{16}3/6,,,,7-4[8:1],,7,,3-8[8:1],,,,7-4[8:1],,7,,
{16}3,,,2,4,,1,,8-4[8:1],,7,,6/8,,,,
{16}2q4[2:1],,,,6,,5,,4b<7[8:1]*>2[12:1],,,,,,,,
{16}1p6[2:1],,,,4,,5,,6b>3[8:1],,7,,8b,,,,
{16}2,2,2,,6,6,6,,4,4,4,,8,8,8,,
{16}2q5[2:1],,,,6,,5,,5b>2[8:1]*<7[12:1],,,,,,,,
{16}8q2[2:1],,,,4,,3,,2b<8[12:1]*>5[8:1],,,,,,,,
{16}7q4[16:3],,,,3,,2,,1-5[8:1],,5,5,1,,,,
{16}7/4,,6,5,7,,8/4,,2,1,3,,7,5,6,,
{16}1,5,1,5,2,6,2,6,3,7,3,7,4-8[8:1],8,4,8,
{16}4b,,,,6/1,,7,8,6,,1<6[8:1],,,,1/2,,
{16},,2,3,4/8,,7,6,5/1,,3,4,5/1-5[8:1],,,,
{16}1b/8b,,7,,6/4,,3,5,2,,4-8[8:1],,,,4/7,,
{16},,6,5,4/8,,3,4,5/1,,3b/7b-3[8:1],,,,8b/7b,,
{16}1b,,5b/2b,,3,4,2,,1b-5[8:1]/7b,,8-3[8:1],,1b,,8,,
{16}4,,7,,2,1,3,7,5,6,2,4,3,8,6,7,
{16}1b,5,4,5,2b,6,5,7,1b,5,4,5,2b,6,5,7,
{32}1b,2,3,4,5,6,7,8,1,2,3,4,5,6,7,8,{16}1b/5b,,5b,,5b,,5b,,
{8}1bs5[16:7]/5b,,,,,,,7bpp3[16:9]/4b,
{1},
{8}2bz6[16:7]/7b,,,,,,,5bpp2[16:9]/3b,
{1},
{8}2-4[8:1],,2/1,,5-1[8:1],6,5/7,,
{8}2h[8:1],4,2h[8:1],8,2-5[8:1]*-6[8:1],,2,,
{16}8,4,7,,2,5,3,,7,4,6,,3/5,,2/6,,
{16}7,8,7,8,7,,2,1,2,1,2,,
{32}1-5[8:1]/8-4[8:1],,,,,,,,
{16}1b/8b<5[8:1],,,,8-3[8:1],,4,,8<5[8:1],,5,,8-4[8:1],,3,,
{16}8<5[8:1],,2,3,8-4[8:1],,3,4,8<5[8:1]*>3[8:1],,,,8w4[8:1],,,,
{16}8,,,,2v5[8:1],,6<1[8:1],,2,,6,,,,4/7,,
{16},,6,5,8,,3,4,1,,2b/7b,,1b-5[8:1]/8b-4[8:1],,,,
{16}8/1>4[8:1],,,,1-6[8:1],,5,,1>4[8:1],,4,,1-5[8:1],,6,,
{16}1>4[8:1],,7,6,1-5[8:1],,6,5,1>4[8:1]*<6[8:1],,,,1,,,,
{16}7,4,8,,2,5,1,,6,5,8,,1/7,,2/6,,
{16}3,4,2,4,3,,6,5,7,5,6,,7v4[8:1]/3v8[8:1],,,,
{16}3b/7b<4[8:1],,,,7-1[12:1],,2,3,7-4[8:1],,3,4,7>2[8:1],,2,3,
{16}7<4[8:1],,3,4,7-3[8:1],,2,3,7b>2[8:1]*<4[8:1],,,,7b,,,,
{16}2,4,3,,6,5,8,,1/7,,2-5[8:1]/6-1[8:1],,,,2/6,,
{16},,8,4,6,,2,5,3,,8b/4b,,2bv5[8:1]/6bv1[8:1],,,,
{16}6/2>5[8:1],,,,2-8[12:1],,7,6,2-5[8:1],,6,5,2<7[8:1],,7,6,
{16}2>5[8:1],,6,5,2-6[8:1],,7,6,2b<7[8:1]*>5[8:1],,,,2b,,,,
{16}6,5,7,5,8,,4,,3,4,2,4,1,,5,,
{16}7,8,6,1,7,,2,1,3,8,2,,1-5[8:1]/7-4[8:1],,,,
{16}1b>8[16:8]/7b<8[16:8],,,,,,,,,,,,,,,,
{16}5b-2[8:1]/7,,,,5/7,,8,,1,2,1,,3/8,,4/7h[4:1],,
{16},,5-1[8:1],,7,,5,,6,6,2,,5,,1,,
{16}3b/7b-4[8:1],,,,1/7,,2,,3,4,3,,2/5,,1h[4:1]/6,,
{16},,7-3[8:1],,1,,7,,2b,,,8b/4b,,,6b/2b,,
{16}3,4,2,4,1,,6,5,7,5,8,,2-6[8:1],1,2,3,
{16}2b,
E
