&title=暮しガスメータ
&artist=電ǂ鯨
&first=0
&des=螺子を巻く
&lv_5=生
&inote_5=(130)
{32},,,,,,,,,,,,,,,,,,,,,,,,,,,,,,1,2,
{32}3,4,5,6,7,8,1,2,3,4,5,6,7,8,1,2,3h[8:1]/7h[8:1],,,,,,,,1,,5,,3,,7,,
{16}1h[8:1],,,,3h[16:1]/5h[16:1],,,7h[16:1]/8h[16:1],,,1h[16:1]/2h[16:1],,,7h[16:1]/5h[16:1],,,
{16}24,,2,4,3,,35,,17,,2,4,3,5,4,6,
{16}1h[8:1],,,,3h[16:1]/4h[16:1],,,7h[16:1]/8h[16:1],,,1h[16:1]/3h[16:1],,,6h[16:1]/5h[16:1],,,
{16}24,,2,4,3,,35,,2b/6bV47[16:3],,,,2b/6b,,{32}1,2,3,4,
{16}8h[8:1],,,,6h[16:1]/4h[16:1],,,2h[16:1]/1h[16:1],,,8h[16:1]/7h[16:1],,,2h[16:1]/4h[16:1],,,
{16}75,,7,5,6,,64,,82,,7,5,6,4,5,3,
{16}8h[8:1],,,,6h[16:1]/5h[16:1],,,2h[16:1]/1h[16:1],,,8h[16:1]/6h[16:1],,,3h[16:1]/4h[16:1],,,
{16}75,,7,5,6,,64,,{4}7b-4[8:1]/3b-6[8:1],7bpp6[1:2]/3b,
{4}1,,1,,
{4}2,,2,,
{4}3h[2:1],,4h[2:1],,
{4}5h[2:1],,6h[4:1],2qq3[1:2],
{4}8b,,8,,
{4}7,,7,,
{4}6h[2:1],,5h[2:1],,
{4}4h[2:1],,3-6[8:1],,
{16}1,,2,4,3,5,4,6,5,,47,,6,5,6,5,
{16}7<4[8:1],,,4,7,,3,,2,4,3,,34,,25,,
{16}3>8[8:1],,,5,3,,6,,78,,61,,7,8,7,8,
{16}7p4[16:5],,,4,7,,3,,1,,1,,1bpp5b[4:14]`5bpp6[4:6],3b/7b,,,
{4},,,,
{4},,,,
{4}6,,7,,
{4}8,,1-5[8:1],,
{16}2-5[8:1]/6-4[12:1],,,,26,,,3,4,,25,,16,,,3,
{16}4,,25,,3,4,,2,1,,3,4,2,5,1,6,
{16}8<5[8:1],,,,18,,,3,4,,25,,16,,,3,
{16}4,,25,,3,4,,2,1w5[8:1],,,,,,,,
{16}7-4[8:1]/3<5[12:1],,,,73,,,6,5,,74,,83,,,6,
{16}5,,74,,6,5,,7,8,,6,5,7,4,8,3,
{16}1-4[8:1],,,,81,,,6,5,,74,,83,,,6,
{16}5-1[8:1],,4,,35,,2,,48,,26,,1,5,3,7,
{16}1h[8:1],,,,3h[16:1]/4h[16:1],,,7h[16:1]/8h[16:1],,,1h[16:1]/2h[16:1],,,6h[16:1]/5h[16:1],,,
{16}78,,6,4,5,,32,,18,,7,5,6,4,5,3,
{16}8h[8:1],,,,6h[16:1]/4h[16:1],,,3h[16:1]/2h[16:1],,,7h[16:1]/1h[16:1],,,5h[16:1]/6h[16:1],,,
{16}12,,3,5,4,,17,,4b-8[64:7]/6b,,,,{32}4b/8b,7,6,5,1,2,3,4,
{16}8h[8:1],,,,6h[16:1]/5h[16:1],,,2h[16:1]/1h[16:1],,,8h[16:1]/7h[16:1],,,3h[16:1]/4h[16:1],,,
{16}21,,3,5,4,,67,,81,,2,4,3,5,4,6,
{16}1h[8:1],,,,3h[16:1]/5h[16:1],,,6h[16:1]/7h[16:1],,,2h[16:1]/8h[16:1],,,4h[16:1]/3h[16:1],,,
{16}87,,6,4,5,,36,,8b>3[8:1]/1b<6[8:1],,,,8b/1b,,,,
{16}1p5[8:1]/8,,,2,1,,3,,34,,25,,3,4,3,4,
{16}2>5[8:1],,,5,2,,6,,6,5,7,,81,,72,,
{16}7v4[8:1],,,4,7,,3,,3,4,2,,2,4,3,5,
{16}4qq6[16:5],,,6,4,,7,,8,,8,,8bqq5b[4:14]`4bqq5[4:6],6b/2b,,,
{4},,,,
{4},,,,
{4}4-2[12:1],,1-3[12:1],,
{4}4-1[12:1],,8-3[8:1],,
{16}4/5<8[8:1],,,,2h[4:1],,,1,1<6[8:1],,2,,3h[4:1],,,5,
{16}5,,4,,3,4,,6,5,,1,8,1,8,1,8,
{16}7v4[8:1]/2<7[8:1],,,,,,,5,5v8[8:1],,4,,3h[4:1],,,7,
{16}7,,8,,2,1,,7,8w4[8:1],,,,,,,,
{16}5/4>1[8:1],,,,7h[4:1],,,8,8>3[8:1],,7,,6h[4:1],,,4,
{16}4,,5,,6,5,,3,4,,8,1,8,1,8,1,
{16}2v5[8:1]/7>2[8:1],,,,27,,,4,4v1[8:1],,5,,6h[4:1],,,2,
{16}2,,1,,7,8,,2,1-5[8:1],,,,1/5w1[4:1],,,,
{8},,,,5w1b[8:1],5?w1[260#4:1],5b,,
{16}3>6[4:1],,,,3/6<3b[64:15],,,,4q5[32:9]*>5[32:9],,,,4,,,,
{16},,,,1/7<4[8:1],,,,2,,8h[8:1],,3,1,5,3,
{16}6<3[4:1],,,,6/3>6b[64:15],,,,5<1[8:1]*qq4[16:3],,,,5,,,,
{16}8<5[8:1],,,3,8,,1,,5bp8[8:1]/8b>4[8:1],,,,5b/8b,,,,
{16}7<4[12:1]/4,,,7,2-6[8:1],,,,3v8[8:1]/2,,,,1v6[12:1]/3,,,1,
{16}8v7[8:1],,,,8/1V35[32:5],,,,8,,7h[8:1],,5,7,4,6,
{16}3p3[4:1],,,,4/3>7b[8:1]*<7[8:1],,,,,,,,1,,6,,
{16}4h[8:1],,7,8,6,5,1,2,4bw8b[8:1],,4?w8[260#4:1],,4b,,,,
{16}1-7b[12:1]/6-8[12:1],,,,1-5[8:1]/6,,,,1-3b[12:1]/4-2[12:1],,,,1/4-8b[8:1],,,,
{16}7-5b[12:1]/4-6[12:1],,,,4-1b[8:1]/7,,,,8-3b[8:1]/4,,6,,48,,6,,
{16}8-2[12:1]/3-1b[12:1],,,,8-4b[8:1]/3,,,,8-6[12:1]/5-7b[12:1],,,,8/5-1[8:1],,,,
{16}15,,,3,3>8b[8:1],,8<6[12:1],,5b-1[8:1]*w1[8:1]/3b,,,,5b,,,,
{16}8-2b[12:1]/3>1[12:1],,,,8-4[8:1]/3,,,,8<6b[12:1]/5-7[12:1],,,,8/5q1b[8:1],,,,
{16}1v4b[8:1]/5>2[8:1],,,,5<8b[8:1]/1,,,,1v6b[8:1]/5,,3,,5/1,,3,,
{16}1-7[12:1]/6<8b[12:1],,,,1-5b[8:1]/6,,,,1>3[12:1]/4-2b[12:1],,,,1/4-8[8:1],,,,
{16}84,,,6,6<1b[8:1],,1>3[12:1],,4bp8[8:1]*q8[8:1]*w8[8:1]/6b,,,,,,,,
{8}6-8[12:1]/5,7,6/5-1[8:1],4,6-8[12:1]/5,7,65,4,
{8}3-1b[12:1]/1,2,3/4-8b[8:1],5,3-1b[12:1]/4,2,34,5,
{8}6-8[12:1]/8,7,6/5-1[8:1],4,6-8[12:1]/5,7,65,4,
{8}3-1b[12:1]/1,2,3/4-8b[8:1],5,3-6[12:1]*q7[8:1]/4,,3b,,
{8}7-5[12:1]/5,5h[16:1],5-8[8:1],4h[16:1],8-4[8:1],1h[16:1],4-1[8:1],3h[16:1],
{8}1-4b[8:1],2h[16:1],4-8b[8:1],3h[16:1],8-5b[8:1],1,5-7b[12:1],4h[96:1],
{8}7-4[12:1],8h[16:1],4-8[8:1],3h[16:1],8-3[8:1],1h[16:1],3-8[8:1],2h[16:1],
{8}8-4b[8:1],1h[16:1],4-7b[8:1],3,1>5[8:1]*<5[8:1],,1pp6[8:3],,
{16}1/2h[8:3],,,,,,,,3h[16:1],5h[16:1],1h[16:1],7h[16:1],4h[16:1],6h[16:1],2h[16:1],8h[16:1],
{16}3h[8:1],,4h[8:1],,5h[8:1],,7h[16:1],8h[16:1],6h[16:1],1h[16:1],5h[16:1],2h[16:1],6h[16:1],4h[16:1],7h[16:1],5h[16:1],
{16}8h[8:1],,3h[16:1],4h[16:1],2h[8:1],,6h[16:1],5h[16:1],7h[8:1],,1h[8:1],,3h[8:1],,4h[8:1],,
{16}7>3[16:3],,6h[8:1]/5,,7,,5,,4,4,4,4,{32}4,3,2,1,8,7,6,5,
{16}4/7pp4[4:1],,,,47,,,,3h[8:1],,1h[16:1],2h[16:1],8h[8:1],,2h[16:1],1h[16:1],
{16}3h[8:1],,6h[16:1],5h[16:1],7h[8:1],,3h[16:1],4h[16:1],2h[8:1],,1h[16:1],2h[16:1],8h[8:1],,2h[8:1],,
{16}6h[8:1],,4h[16:1],5h[16:1],3h[16:1],6h[16:1],2h[16:1],7h[16:1],1h[16:1],8h[16:1],2h[16:1],7h[16:1],3h[16:1],6h[16:1],4h[16:1],5h[16:1],
{16}3>8[8:1],,,,3-6b[8:1]/7-4b[8:1],,,,3b-8[8:1]`7b-2[8:1],,,,3b-7[4:6]*-7[4:6]/7b,,,,
{1}3h[4:7],,
{16}6-8[12:1]/2,,,,3,,,,4-1[8:1],,7,,6,,,,
{16}5,,5,,3,4,,6,5w1[8:1],,,,,,,,
{16}3-1[12:1]/7,,,,6,,,,5-8[8:1],,2,,3,,,,
{16}1,,1,,2,1,,7,8<5[8:1],,1,,2,,3,,
{16}4-2[12:1],,,,4v1[8:1],,,,7<4[8:1],,8,,3,,,,
{16}18,,7,,26,,1,,2>5[8:1]/8<5[8:1],,,,2p5[4:1]/8q5[4:1],,,,
{8},,,,4q1b[8:1]/6p1b[8:1],4?q1[260#4:1]`6?p1[260#4:1],64,,
{16}8<2[4:1]/2,,,,8/2>8b[64:15],,,,1<1[32:9]*q1[32:9],,,,1,,,,
{16},,,,8/2V46[8:1],,,,7,,1h[8:1],,6,8,4,6,
{16}3>5[4:1],,,,3/5<3b[64:15],,,,4pp5[32:6]*>8[32:4],,,,4,,,,
{16}1V35[16:3],,,6,1,,8,,5bp8[8:1]/1b<4[8:1],,,,5b/1b,,,,
{16}2-5[12:1]/5,,,2,7-3[8:1],,,,6v1[8:1]/7,,,,8v3[12:1]/6,,,8,
{16}1v2[8:1],,,,1/8V64[32:5],,,,1,,2h[8:1],,4,2,5,3,
{32}5,6,7,,3,,8,,2,,7,,1,,6,,2,3,4,,6,,5,,7,,4,,8,,3,,
{32}7,6,5,,2,,1h,,3,,4h,,8,,7h,,1b/6b,2,3,4,5,6,7,8,1b/4b,2,3,4,5,6,7,8,
{16}1>4[12:1]/5,,2,5h[128:1],1<6b[12:1],,8,5h[128:1],1>4[12:1],,2,5h[128:1],1<6b[12:1],,8,5h[128:1],
{16}1>4[12:1],,2,5h[128:1],1qq2b[4:1],,8,5h[128:1],1,,2,,3,,4,,
{16}8<5[12:1]/4,,7,4h[128:1],8>3b[12:1],,1,4h[128:1],8<5[12:1],,7,4h[128:1],8>3b[12:1],,1,4h[128:1],
{16}8<5[12:1],,7,4h[128:1],8-3[8:1],,2,,8b<5[8:1]/4bv7[8:1],,,,4b/8b,,,,
{16}4>1[12:1]/8,,3,8h[128:1],4<7b[12:1],,5,8h[128:1],4>1[12:1],,3,8h[128:1],4<7b[12:1],,5,8h[128:1],
{16}4>1[12:1],,3,8h[128:1],4pp3b[4:1],,5,8h[128:1],4,,8,,1,,2,,
{16}6v6[16:3],,7,5,6bV42b[8:1]*V82[8:1],,,,,,,,13,,45,,
{16}6/8h[8:1],,6,5,7,8,4,3,2b>5[8:1]/1bv6[8:1],,,,,,,,
{16}25,,3,3,4,,35,,47,,6,5,7,4,6,5,
{16}8,,2,2,1,,28,,37,,1,7,2qq5b[13#10:1],6pp4[13#10:1],1,7,
{1}2?qq5[14.44444444444444#9:1],E
