&title=再生
&artist=ナナツカゼ
&first=-0.14
&lv_5=13+
&des=hhh02081
&inote_5=(145)
{1},
{2}3h[2:1],4h[2:1],5h[2:1],6h[2:1],3h[2:1],4h[2:1],5h[2:1],Chf[2:1],
{4}3h[2:1],E2,4h[2:1],B1,5h[2:1],B8,6h[2:1],E8,3h[4:1],4h[4:1],5h[4:1],8<1[8:4],C,,,
{8}1q5[8:1]/3,2,1/8,,8p4[8:1]/6,7,8/1,,1x>3[8:1],3<5[8:1],5<7[8:1],7pp4[16:6],6h[4:1],,,,
{8}8p4[8:1],7,8/6,,1q5[8:1],2,1/3,,{16}2,8,{8}1-3[8:1],1-7[8:1],1-5-1[4:1],,,,,
{8}5,6,71,2,38,7,62,3,74,6,54,3,52,6,73,2,61,7,
{16}2,1,3,8,4,7,5,6,3,4,2,5,1,6,8,7,1x>8[4:1],,,,,,,,,,7,1,8-6[8:1],,2,,
{8}8b-4[8:1]/1h[2:1],,8-5[8:1],,8,,2-4[8:1],4-8-2[4:1],
{8}2,5,6v8V64[8:3],7,,{16}3,2,1-3[8:1],,1,,
{8}1b-5[8:1]/8h[2:1],,1-4[8:1],,1,,7-5[8:1],5-1-7[4:1],
{8}7,4,3v1V35[8:3],2,,{16}6,7,8-5[8:1],,8,,
{8}8/4-1[8:1],,4/7-4[8:1],,7/3-8[8:1],,3-7[8:1],7-3[8:1],
{8}3,6,5,4p6[4:1],,6<8>4p8[8:6]/4,7,8p4<8[4:2],,,,,,,,
{8}8x<6[8:1],6>4[8:1],4>2[8:1],2qq5[16:6],3h[4:1],,,2x,3,
{4}4/7h[8:1],{48}2,B6,B5,E5,,,,,,,,,{8}1/6h[8:1],2,{48}3,B7,B8,E1,,,,,,,,,
{8}8/7h[8:1],1,{48}2,A6,D6,A5,,,3,,,,,,{8}6h[8:1],2,{48}3,A7,D8,A8,,,4,,,,,,
{4}5/2h[8:1],{48}7,B3,B4,E5,,,,,,,,,{8}8/3h[8:1],7,{48}6,B2,B1,E1,,,,,,,,,
{8}1/2h[8:1],8,{48}7,A3,D4,A4,,,6,,,,,,{8}3h[8:1],7,{48}6,A2,D2,A1,,,5,,,,,,
{8}4/7-5[8:1],,2/7-1[8:1],,1/7-5[8:1],2,3/7,,
{8}8/6-8[8:1],1,2/6-4[8:1],3,6-8[8:1],2,3/6,4,
{8}5/2-4[8:1],,7/2-8[8:1],,8/2-4[8:1],7,6/2,,
{8}1/3-1[8:1],8,7/3-5[8:1],6,3-1[8:1],7,6/3,5,
{2}3h[1:1],E2,4h[1:1],B1,5h[1:1],B8,6h[1:1],E8,
{2}3h[1:1],E2,4h[1:1],B1,5h[1:1],B8,8<1[2:1],C,
{16}2b/6h[8:1],,4,,7/3h[8:1],,5,,46,,3,6,2-6-4[4:1],,7/1,,
{16}2/6,,8,,7h[8:1],,1-7[8:1],7,2-6[8:1],,1-5[8:1],,2,,1,,
{16},,46,,1,,53,,8,,7-3-5[4:1],1,,,7,8,
{16}8-2[8:1],,2-6[8:1],,8/3,,4-8-2[4:1],4,,,6,,6,,6h[8:1],,
{16}8-6[8:1],,1-5-3[4:1],,8,,1,,,,7,7h[8:1],,1V75[8:1],1,8,
{16}2,1,,3,3-1[8:1],,2,,4-8-6[4:1]/3,,5,,3/4,,2,,
{8}2>4[8:1],4<6[8:1],6<8[8:1],8q6[16:3],,,7h[8:1],,
{8}7<5[8:1],5>3[8:1],3>1[8:1],1p3[16:3],,,,,
{1}1h[2:3]/8x<5p4>1[2:3],,Ch[2:3]/1x>4q5<8[2:3],,
{4}A3,E4,E5,A5,D3,B3,B5,D6,D2,B1,B7,D7,B2,B6,C,
{8}8v5[8:1]/6,7,8/1,,1v4[8:1]/3,2,1/8,,8x-6[8:1],6-4[8:1],4-2[8:1],2-8v3[16:5],3h[4:1],,,,
{8}1v4[8:1],2,1/3,,8v5[8:1],7,8/6,,{16}6,4,{8}5-1[8:1],1-5-7[4:1],5-3[8:1],,,,,
{8}4,3,28,7,61,2,37,6,25,3,45,6,47,3,26,7,38,2,
{16}7,8,6,1,5,2,4,3,6,5,7,4,8,3,1,2,8x<1[4:1],,,,C,,,,,,7,1,8,,2h[8:5],,
{8}8x,,8x,,8x,,1xh[8:1],6,
{8}2xh[8:1],7,3v1V35[8:3],3,,{16}6,7,8-6[8:1],,8,,
{8}8b-4[8:1]/1x,,8-5[8:1]/1x,,8/1x,,2-4[8:1],4-8-2[4:1],
{8}2,5,6v8V64[8:3],7,,{16}3,2,1-4[8:1],,1,,
{8}1/5-8[8:1],6,5/2-5[8:1],3,2/6-1[8:1],7,6-2[8:1],2-6[8:1],
{8}6,3,4,5v3[4:1],,3-1V75V31[8:6]/5,2,1xz5s1[4:2],,,,,,,,
{8}1x-3[8:1],3-5[8:1],5-7[8:1],7-1v6[16:4],6h[4:1],,,7p3[8:1],7,
{48}7b/3x<6[8:1],B2,B1,B8,,,{8},
{48}3x/7xv4[8:1],A8,D1,A1,D2,,{8},
{48}3x/7x,B3,C,B8,,,{8},26,4,37,5V71[8:1],,
{48}5xv3[8:1]/1x,E2,E3,A3,E4,E5,{16},,8,7,6q2[8:1],,6,,
{48}6x/2x<7[8:1],B3,B4,B5,,,{8},
{48}2x/6xv1[8:1],A5,D5,A4,D4,,{8},
{48}2x/6x,B2,C,B5,,,{8},37,1,26,8V64[8:1],15,
{48}4x<8[8:1]/8x,E4,E3,A2,E2,E1,{16},,1,2,3-5[8:1],,3,,
{48}3b-8[8:1]/7x,D8,A8,D1,,,{8},
{48}3x-7[8:1]/7x,B6,B5,E5,,,{8},
{48}3x/7xw3[8:1],B3,C,B7,,,{8},
{48}B6,B8,E5,E2,,,{8},15,8/6-2-8-6-4[8:4],,
{48}6x/8x,B8,C,B4,,,{8},3,2,1bw5[2:1],,{48}A1f,,,,,,{8},,,,,
{8}3/7h[2:1],3,2,1,8h[2:1],,7,6,5,
{16}5h[8:1]/1,,1,,5h[8:1],,2,2,5h[8:1],,3,,5h[8:1],,4,,
{16}5h[8:1]/3,,2,,5h[8:1]/3,,2,,5h[8:1]/1,,2,,5h[8:1]/1,,8,,
{16}6h[8:1]/1,,2,2,6h[8:1],,3,3,6h[8:1],,5,,6h[8:1],,7,,
{16}6h[8:1]/8,,1,,6h[8:1]/2-4[8:1],,4-8-2[4:1],,6h[8:1],,,,6h[8:1],,,,
{16}4h[8:1]/6,,5,,4h[8:1],,6,6,4h[8:1],,7,,4h[8:1],,8,,
{16}4h[8:1]/7,,6,,4h[8:1]/7,,8,,4h[8:1]/1,,8,,4h[8:1]/7-5[8:1],,5-1-7[4:1],,
{16}3h[8:1],,,,3h[8:1],,,,3h[8:1],,5,5,3h[8:1],,4,,
{16}3h[8:1],,2,,3h[8:1],,4,,3h[8:1],,6,,1x>4q5[4:15],,8x<5p4[8:29],,
{1},,,,
{4}5<8[4:3],E2,,E4,4>1[4:3],E1,,E7,
{4}5-1-5[4:7],E7,,B5,,E4,,{8}C,B1,
E
