&title=Cult Future
&artist=LV.4
&first=-0.912
&des=擊奏超絶技
&lv_6=14+
&des_6=擊奏超絶技
&inote_6=
(175){4},,,,3h[4:1],
{8}5,5h[4:1],,4,{4}4h[4:1],
{8}6,6h[4:1],,E3h[8:3],{4}E7h[4:1],C,
8h[4:1],{8}2,2h[4:1],,7,{4}7h[4:1],
{8}1,1h[4:1],,E7h[8:3],{4}E3h[4:1],C,
6h[4:1],{8}5,5h[4:1],,4,{4}4h[4:1],
{8}3,3h[4:1],,6-1[8:1],2,{32}E3,B3,B4,E5,,,,,,,,,{4}7h[4:1],
{8}8,8h[4:1],,1,{4}1h[4:1],
{8}2,2h[4:1],,7-2[8:1],3-6[8:1],7,{4}3,
{8}7bh[4:1],2bh[8:1],{16},,3,4,{8}3h[4:1],4,5h[4:1],4,
3-1[8:1],5-7[8:1],3,5,{16}8bh[8:1],,,7h[8:1]/1h[8:1],,,{8}6h[16:1]/2h[16:1],
5b/3b,3bh[4:1]/5bh[8:1],{16},,6,5,{8}6h[4:1],5,4h[4:1],5,
6<8[8:1],4>2[8:1],6,4,1w5[8:1],1,{4}1/B6/B5/B4`C,
{8}3/2,3/2,4/3,4/3,5/4,5/4,{16}6,5,6,7,
{8}6,6,7/6,7/6,7/8,7/8,{16}1,8,1,8,
1b,1h[16:1],,7b,{8}7h[16:1],{16}2b,2h[16:1],,6b,{8}6h[16:1],{16}3,5,3,5,
4bxh[8:1]/3bxh[8:1],,,5h[8:1]/6h[8:1],,,{8}7bxh[8:1]/8bxh[8:1],{16},2h[8:1]/1h[8:1],,,2-6[8:7],1,2,1,
{4}2w6[1.0286##0.1714],,,2bx/B2/C/B6f,
{8}1b-3[8:1],{16}5,5x,{8}1-7[8:1],5,1-3[8:1],5,1-7[8:1],5,
1-3[8:1],{16}5,5x,{8}1-7[8:1],5,1xV35b[8:1],5,{4}1b,
{8}7b<5[8:1],{16}3,3x,{8}7>1[8:1],3,7<5[8:1],3,7>1[8:1],3,
7<5[8:1],{16}3,3x,{8}7>1[8:1],3,{4}7V53b[8:1],7b,
{8}8/1b-5[8:1],{16}7,7x,{8}1-3[8:1],8,1-5[8:1],7,1-3[8:1],8,
1-5[8:1],{16}7,7x,{8}1-3[8:1],8,1-5b[8:1],7,{4}1b,
{8}8b<5[8:1],{16}3x,3x,{8}8-4[8:1],3x,8-5[0.3429##0.1714],3x,8,3,
{16}2h[16:1]/6h[16:1],,,5h[16:1]/1h[16:1],,,{8}8h[16:1]/4h[16:1],{4}7-2[8:1]/3-6b[8:1],7b/3b/Cf,
{16}1bx,3,1,3,2,4,2,4,3,5h[16:1],,3xh,5xh,3h[16:1],,6,
4,6,4,7,5,7,5,8,6-2[8:1],8,,8x,{4}8x/6bx,
{16}8bx,2,8,2,7,1,7,1,6,8h[16:1],,6xh,8xh,6h[16:1],,1,
7,1,7,2,8,2,8,3,1-5[8:1],3,,3x,{4}3x/1bx,
{16}2b,3,4,5,2,1,8,7/3,6/2,5h[16:1]/1h[16:1],{48},,,6x/2x,,7/3,,8/4,,{16}5/1,,,8b,
7,6,5,8,1,2,3/7,4/8,5h[16:1]/1h[16:1],{48},,,8x/4x,,7/3,,6/2,,{16}1/5,,,1,
8,1,8,2,7,2,7,{24}3bx,4,3,4,{48},{16}3,{24}6bx,5,6,5,{48},{16}6,
5,,,5w1[0.2571##0.1714],,,{8}5b/B2/B1/B8/B5`Cf,{16},,,,3,2,1,8,
{4}6/7>5[8:5],6h[8:1],7h[8:1],8h[8:1],
1V75[4:1],{16}5b<1[4:1],4,3,2,{4}1>5b[8:3],{8}5,5w1[8:3],
{16},,,,,,,,,,,,2,3/1,8/4,7/5,
{4}6<2[4:1],2>6[4:1],6<2[4:1],{16}2-8-6-4-2b[1:1],3,4,5,
{4}6,4,2,8,
7>2[8:1],7/6/D1,5<8[8:1],5/4/D7,
3<6[8:1],3/2/D5,1>4[8:1],1/8/D3,
{16}7bh[16:3],,,5bh[16:3],,,{8}3bh[16:3],{16},1bh[16:3],{32},,,8,,,{16}1,8,1,
{4}8h[2:1],{8}1,2,{4}3h[8:1],{16}4,3,4,3,
{4}5h[16:7],{8}6,7,8h[4:1],7,6h[4:1],1,
2h[4:1],8,{4}7h[8:3],{16},,,,1,8,1,8,
{4}2h[4:1],{8}3,4,{16}6,5,6,5,{8}7,7,
{4}8h[8:1],{8}7h[8:3]/1h[16:1],1h[16:1],{4}1h[8:1],7/1,
6h[8:1]/2h[8:5],6h[8:1],6h[8:1],2/6,
5h[4:1]/3h[8:1],{8}3,5h[8:1]/3h[4:1],,5,{16}3b,5,3,5,
3,5,3,5,4,4,4,4,4bh[32:3],,,4bh[12:1],,,{8}4bxw8[8:5],
,,,,,,,,{1}1-7-5-3-1[4:11]/8-6-4-2-8[4:11],
{2}B7h[1:2],B6h[2:3],
{8},,,,,,,,,,,,,,7>2[0.3429##3.0857],
6<2[0.3429##2.9143],
{2}5<2[1:2],B4h[2:1]/B3h[2:1],
{4},2,{16}3,,,4,,,{8}4,
4-8[16:31],,,5h[16:1],,,{4}3h[16:1],
{8},6h[16:1],,,{4}2h[16:1],4-8b[8:1],
4b,3h[8:1],{8}3h[16:1]/E6,3h[16:1],{4}3h[8:1]/B7,
3h[8:1]/E6,3h[8:1]/B7,{16}4h[16:1]/3h[16:1],,,5h[16:1]/4h[16:1],,,{8}6h[16:1]/5h[16:1],
{4}6h[8:1],6h[8:1]/B2,{8}6h[16:1]/E4,6h[16:1],{4}6h[8:1]/B2,
6h[8:1]/E4,6h[8:1]/B2,5w1[8:1],5,
{8}6/4,6/4,5/3,5/3,2/4h[16:1],{16}2,4,{8}2,4/2,
3/1,3/1,2/8,2/8,1/7h[16:1],{16}1,7,{8}1,7/1,
{16}1b/7b,7x/1x,,6b/2b,{8}6x/2x,{16}2b/8b,8x/2x,,3b/7b,{8}7x/3x,{16}1,8,1,8,
{32}2b/1,3,4,5,,,1b/2,8,7,6,,,2b/1,3,4,5,,,1b/2,8,7,6,,,{16}2,1,2,1,
2b,4,3,4,1,5,4,5,2b,4,3,7b,5,6,{8}1b,
{16}7,5,7,5,6,4,6,4,7b,5,6,2b,4,3,{8}8b,
{16}2,8,2,8,1,7,1,7,1b,3,2,7b,5,6,{8}1b,
{16}1b-5[0.2571##0.1714],,,8b-4[0.2571##0.0857],,,{8}7b-3[0.2571##0.0857],{16},6b-4[0.2571##0.0857],,,{8}1b,{32}1,2,3,4,
{8}7bh[16:1],5h[16:1],{16}7,5,6,5,8b,4,5,4,7b,5,{8}6,
{16}2b,4,2,4,3,5,3,5,1b,4,3,6,3b,4,{8}1,
{16}7b,1,5,4,6,3,5,4,7b,4,5,2b,5,4,{8}7bh[8:1],
{12}6b-2[0.2571##0.0857],6bx,{48},{16}8b-4[0.2571##0.0857],,,{8}3b-7[0.2571##0.0857],{16},5b-1[0.2571##0.0857],,,{4}4bw8b[16:1],
4/B4/Cf/B8,{8}2b>4[8:1],{16}7,7,{8}2-6[8:1],8V64[8:1],2,8,
1b-5[8:1],8,1>4[8:1]/7<4b[8:1],8,{4}7bv4b[8:1]/1bv4[8:1],1/7`Cf,
{8}6b<8[8:1],{16}3,3,{8}6-4[8:1],2-8[8:1],6v3b[8:1],2>5[8:1],6,2,
8-3[8:1],8,8<5[8:1]/4>1b[8:1],4,{4}4b-7b[8:1]/8bv3[8:1],A8f/A4f`C,
{8}2b-6[8:1],{16}1,8,{8}2-4[8:1],7-1[8:1],2qq5b[4:1],7,{4}2,
{8}6-1[8:1],6,6v8-5b[4:1]/2v8-3b[4:1],2,{4}6b/2b,A5f/A3f,
{8}7b/3b,7b/3b,{16}4,5,4,5,{8}2b/6b,6b/2b,{16}1,8,1,8,
{48}1b,2,3,4,,,,,,7b,6,5,{8}4,{48}2b,3,4,5,,,,,,8b,7,6,{8}5,{16}3xh[32:1],4xh[32:1],3xh[32:1],4xh[32:1],
E2/B2,5h[8:1],,,E4,5,{8}5x,{16}E2/B2,5h[8:1],,,E4,5,{8}5x,
{16}3,4,{8}B2/E2,{16}7b,5,{8}6,{16}3,4,{8}B2/E2,{16}7b,5,{8}6,
{16}E8/B7,4h[8:1],,,E6,4,{8}4x,{16}E8/B7,4h[8:1],,,E6,4,{8}4x,
{16}6,5,{8}E8/B7,{16}2b,4,{8}3,{16}6,5,{8}B7/E8,{16}2b,4,{8}3,
{16}B2/E2,5h[8:1],,,B2/E2,5,{8}5x,{16}B3/E4,5h[8:1],,,B3/E4,5,{8}5x,
{16}2b,1,{8}2,{16}7b,8,{8}7,{16}6b,5,{8}6,{16}3b,4,{8}3,
{16}E8/B7,4h[8:1],,,E8/B7,4,{8}4x,{16}B6/E6,4h[8:1],,,E6/B6,4,{8}4x,
{16}3b,4,3,6b,5,6,2b,4,3,7b,5,6,1b,8,1,8,
{4}1w5b[8:1],{16}1b/B6/B5/B4/B1`Cf,,,B2/B3,,5h[8:1],,,B2/B1,5,{8}5x,
{16}3b,4,{8}2,{16}5b,3,{8}1,{16}4b,6,{8}8,{16}6b,5,{8}7,
{16}B7/B6,4h[8:1],,,B8/B7,4,{8}4x,{16}B7/B8,4h[8:1],,,B8/B1,4,{8}4x,
{16}6b,5,{8}7,{16}4b,6,{8}8,{16}5b,3,{8}1,{16}3b,4,{8}2,
{16}B2/B3,5h[8:1],,,B2/B1,5,{8}5x,{16}B1/B2,5h[8:1],,,B8/B1,5,{8}5x,
{16}3b,4,{8}2,{16}5b,3,{8}1,{16}4b,6,{8}8,{16}7b,5,6,5,
7b,5,6,3b,5,4,6b,6,2b,4,3,6b,4,5,3b,3,
{32}8b,7,6,5,,,8b,7,6,5,,,2b,3,4,5,,,2b,3,4,5,,,2b,3,4,5,6,7,{16}8,
1bxh[16:3],{32},,,,2b,3,4,5,,,{8}8bxh[16:3],{32},,1b,2,3,4,,,{16}6,6,5,6,
4bxh[16:3],{32},,,,1b,8,7,6,,,{8}3bxh[#0.2571411],{48},,{96},,{32}8b,7,6,5,,,{16}3b,4,2,5,
{32}1b,8,7,6,,,8b,7,6,5,,,1b,2,3,4,,,8bx,1x,2x,3x,4x,5x,2-7[16:1]/6xv3b[16:1],3,4,5,6,7,8,1,
{1}6bx/2bx/Cf,
E
