&title=The Amusement Park
&artist=Cheetah Mobile Games
&first=0.02
&des=小傻货
&lv_5=13
&inote_5=(128){4},,,,{1}5h[1:1]/1<3pp2[2:3],
{8},,,E8/D8,,,{4}B6/A6,
{1}1h[1:1]/5q4>5[2:3],
{4},,,C,
{8}6h[8:7]/2-5-3[2:1],,,,,,,2,
1h[4:3]/5-7-4[2:1],,,,,,,2/5,
6h[4:7]/3-5[4:1],,,,,C,B1,1h[8:5],
{16},,,,,,,,,,,,8x,8,{8}7,
{16}1b/2b,,,3/8,,,{8}7/4h[8:3],,,5,6,
{16}7x/8x,,,6/1,,,{8}2/5h[8:3],,,4,3,
{16}2x/8x,,,5/6,,,{8}3/4h[4:1],,1-5[8:3],{16},,,,6x,
,,7,,,{8}8h[4:1],,2,7,{16}4,5,
3xh[2:1],,,7,,,{8}8,,8/2,1/7,{16}6,3,
{8}7x,{16}4,7,,2,{8}5,,2,6,3x-8-5-2-7b[8:13],
,,,,,,{4}3x-6-1-4-7[4:3],
,,,,8b/1h[8:13],
4`B4,{8},6`B6,,,2`B2,
,,,,5`B5,,,{4}3x/7h[8:13],
{64}5,E6/B5/E5,{4},{16},{32},{64}1,E1/B1/E2,{4},{16},{32},{64}8,
E8/B8/E1,{4},,{16},{32},{8}Cf,,,{4}6/1/B6/B1,
8/3/B8/B3,{8},5/2/B5/B2,,,7/4h[2:1]/B7,
,,,,8b/C/B3/B5,,,{4}4/1/B4/B1,
8/5/B5/B8,{8},6/2/B6/B2,,,3h[8:5]/Ch[8:5],
,,,,B6/B8/B7f,{16},,,,6b/1bx-5[8:1],
,,7,{8}1x-3[8:1],8,1-5b[8:1],{16}6x,6,{8}1,7,
{16}3/8x-4[8:1],,,2,{8}8-6[8:1],1,8-4b[8:1],{16}3x,3,{8}8,2,
{16}6/1xv4[8:1],,,7,{8}1>3[8:1],8,1s5b[8:1],{16}6x,6,{8}1,7,
{16}3/8xv5[8:1],,,2,{8}8<6[8:1],1,8z4b[8:1],{16}3x,3,{8}8,2,
1x-4[8:1],{16}2,8,{8}1x,8,8-5[8:1],{16}7x,1,{8}8,1,
2xv5b[8:1],{16}3,1,{8}2,8,7v4b[8:1],{16}6x,8,{8}7,1,
{16}2x,8,2,8,3x,7,3,7,{32}4bx,5,6,7,8,1,2,3,4bx,5,6,7,8,1,2,3,
{8}4/8bh[8:3],,,3,8w4[8:1],4,{4}8b,
{8}2b/1b,6,7b/8b,2,7,{16}5-7[8:1],4,{8}7-3-8[4:1],3h[4:1],
,,2-6-2b[4:1],1,8-4-8[4:1],7,8,3,
{4}1b>4[8:1],{8}1b/7b-3[8:1],8,{16}7,,,4/5>7[16:5],,,{8}5/1h[4:1],
,,4>1>4b[4:1],5,6<1<6[4:1],5,6,3,
{4}2b,{8}2b/8b,7,2,{16}4-2[8:1],5,{8}2-6-1[4:1],6h[4:1],
,,7-3-7b[4:1],8,1-5-1[4:1],2,1,6,
{4}8b<5[8:1],{8}8b/2b-4[8:1]*-5[8:1],1,{16}2-7[16:1]*-8[16:1],,,2-6[16:1],,,{8}2/5h[4:1],
,8,,4/2,3/5>1b[8:1],8xh[8:1],{4}A5f/D6/D5,
{8}7b/8b,3,1b/2b,7,{16}2/4,,,5/7,,,{8}1/8-4[8:1],
3,8,1,6h[8:1],8-2[8:1],7-3[8:1],8<2b[4:1],7,
{4}8b-4[8:1],{8}8b,1,{16}7/5,,,4/2,,,{8}1/8,
8,3,1-7[8:1],2-4[8:1],1-5b[8:1],2-6b[8:1],1,2,
{4}8b-4[8:1],8b/2b-6[8:1],{16}2/7<5-3>1b[2:1],,,1,,,{8}4h[8:3],
,,,8,2/A6/E6/B6,2,3/E8/A7/B7,3,
{4}8b/4b-8[8:1],{8}4b/6b-2b[8:1],5,{16}6,,,1/5,,,{8}8/4h[8:3],
,,,6/E7/E6/B6f,2/E2/E3/B2f,7/E8/E7/B7f,1/E1/E2/B1f,8w4b[8:7],
E
