&title=Not my paradiso
&artist=mili
&first=-0.14
&des=雨随风落
&clock_count=4
&lv_5=13+
&des_5=
&inote_5=(132)
{16},,,,
,,,,
,,,,
,,,,
{16}6h[8:3],,,,
,,4,5,
3,,,,
2h[4:1]/4,,,,
{24}4x>5[4:3],5,,,,,
{16},,,,
5,,,,
,,,,
{16}1h[8:3],,,,
,,4,2,
5,,,,
7h[4:1]/5,,,,
{24}5xqq7[4:2],4,,,,,
{16},,,,
1,,,,
3,,,,
{24}8x>5[4:2]/4,7,,,,,
{16}6h[4:2],,,,
,,,,
,,,,
{24}7x/1qq3[4:2],6,,,,,
{16},,,,
5,,,,
7,,,,
{24}8x>2>3<5[4:3]/4,7,,,,,
{16}86,,,,
{12}5,,6,
,7,,
{16}8h[8:1],,4h[8:1],,
6h[8:1],,2h[8:1],,
4h[8:1],,8h[8:1],,
6h[8:1],,2h[8:1],,
{16}4<8[4:1],,,,
8>4[32:8],,,,
4<8[4:1],,,,
8>4<5<6<7>8[4:2],,,,
{16}4x<8b[4:1],,,,
8x>4<5<6<7>8b[4:2],,,,
4x<8[4:1],,,,
8,,,,
{16}1bw5[4:2],,,,
,,,,
,,,,
,,,,
{16}5,,64,,
75,,6,5,
6,,74,,
8,,3,3,
{16}4,,24,,
35,,3,4,
3,,25,,
1,,6,6,
{16}5,,75,,
64,,6,5,
7b-4[8:1],,,,
3bqq4[8:2],,,,
{16}5,,5,,
5,,6,6,
5,,74,,
8<5[8:1],,7,,
{16}1>4[8:1],,2,,
7<5[8:1],,6,,
2,,3,,
1q5[8:1]/4,,,,
{16}16,,7,7,
5,,6,4,
5,,34,,
1>4[8:1],,5,,
{16}7<5[8:1],,8,,
2>4[8:1],,1,,
5,,6,,
7p3[8:1]/5,,8,,
{16}71,,2,2,
4,,53,,
6pp5[4:1],,5,,
64,,3,,
{16}2b<7[8:1],,3,4,
2,,4,,
5-1[8:1],,4,,
53,,2,,
{16}28,,7-4[8:1],5,
6,,71,,
2<6[8:1],,,,
5>2b[8:1],,5,,
{16}6/5b,,7,,
82,,1,,
7,7,5-8[8:1],,
64,,5,,
{16}3bV52[4:1],,1,,
73,,6,,
5<1[8:1],,,,
1,,3,,
{16}4b,,8b<3[4:1]/5,,
,,3q8[4:1],,
1,,8,,
1,,2,,
{16}A8h[16:3]/3h[16:3]/D1h[16:3]/D8h[16:3],,,,
,,2,,
5h[16:3]/B2h[16:3]/B3h[16:3]/E3h[16:3],,,,
,,6,,
{16}8h[16:3]/E5h[16:3]/E4h[16:3]/B4h[16:3],,,,
,,7,,
1-5b[8:1]/A6h[4:1]/D6h[4:1]/A5h[4:1],,,,
1b,,,,
{16}7x<4[8:1],,3,3,
7,,1,,
4<6[8:1],,2,,
3q7[8:1],,4,,
{16}2,,1,,
71,,6,6,
5-8[8:1],,74,,
3h[8:1],,,3,
{16}1>4[8:1],,8,8,
1,,6,,
5>3[8:1],,7,,
6p2[8:1],,5,,
{16}7,,8,,
82,,3,3,
4-1[8:1],,52,,
6h[16:2],,,6,
{16}1b>8b[4:2],,,,
,,6,7,
8bx>2qq7[4:2],,,,
5,,,,
{16}6-4v5-3b[8:4],,,,
,,,,
1h[4:2],,,,
,,,,
{16}4,,2,4,
3,,14,,
6,,7,5,
6,,85,,
{16}7,,7,5,
6,,6,4,
5,3,4-1[8:1],2,
5b,,6,,
{16}7,,7,5,
6,,75,,
2,,2,4,
3,,24,,
{16}7,,7,5,
6,,6,4,
5,3,4-1[8:1],2,
5b,,,,
{16}7<5[8:1],,8,1,
7,,3,,
2>4[8:1],,1,8,
2,,5,,
{16}6-1[8:1],,7,8,
6,,3-8[8:1],,
2,1,3,,
{32}7<4[8:1],,,,,,8bx,1x,
{32}2x,3x,,,,,,,
{16}2,5,3,,
8,4,6,5,
7,,84,,
{32}7b,6,5,4,,,1b,2,
3,4,,,8b,7,6,,
2b<7pp2[4:8],3,4,,,,,,
{16},,,,
{16}5h[4:4],,,,
,,,,
,,,,
,,,,
{16},,,,
,,,,
,,,,
,,,,
{16}5<4[4:4],,,,
,,,,
,,,,
,,,,
{16}5<1[4:3],,,,
,,,,
,,,,
,,,,
{16}2h[4:8]`2?pp3[16.5#32:2],,,,
,,,,
,,,,
,,,,
{16}6h[4:4]`6?pp7b[33#16:2],,,,
,,,,
,,,,
,,,,
{16},,,,
,,,,
,,,,
Ch[4:3],,,,
{16}1,,,,
1,,,,
1,,,,
1>4[8:1],8,2,,
{16}1b/6b,,,,
75,,8,5,
6-1[8:1],,1,,
6/2-6[8:1],,3,,
{16}2b/8,,,,
75,,8,5,
6-1[8:1],,1,,
6/2-6b[8:1],,3,,
{16}8b/2b,,,,
75,,8,4,
6-1[8:1],,1,,
2-6b[8:1]/6,,3,,
{16}7-4b[8:1]/2,,8,,
1-5b[8:1]/7,,2,,
1<6b[8:1],,8-4b[8:1],,
1,,8bx`B8`Cf`B4,,
{16}1h[4:4],,,,
4v5b[4:1],,,,
,,,,
,,,,
{16}3<8b[4:2],,,,
,,,,
7h[4:2],,,,
,,,,
{32}8b<5p4>1b[4:6],1,2,3,,,,,
{16},,,,
,,,,
,,2x,1x,
{16}8x<5[4:2],
