&title=雪男
&artist=かねこちはる
&first=1.488
&des=Elaineblath
&lv_5=14+
&inote_5=(256)
{1},
{24}1bx/8bx,2x-7-2[24:77]`7x,3x`6x-3-6b[24:76],4x/5x,,,{4},,,
{1},,,
{8}D3/E3/E7/D7,,B2,B5,B3,B6,B4,B7,,E2,,{16}B5,B6,{12}E7,,A3,,A4,,
{4}A5h[8:6],,,{8}2,3,4,5h[8:6],,4,,3,,2,
{4}1b-5-3-7-3-5-1[8:12],8,7,6,5,6,7,8,8-4-6-2-6-4-8[8:12],1,2,3,4,3,2,1,
{4}1V35s1s5V31[8:12],8,7,6,5,6,7,8,2hx[8:12]/7hx[8:12],,,,,,,2xb/7xb,
{4}7h[8:1]/8hxb[8:1],7h[8:1]/8hxb[8:1],5h[8:1]/6hxb[8:1],5h[8:1]/6hxb[8:1],
{4}4h[8:1]/5hxb[8:1],4h[8:1]/5hxb[8:1],3h[8:1]/4hxb[8:1],3h[8:1]/4hxb[8:1],
{8}1/2xb,1/2xb,{4}1h[8:1]/2hxb[8:1],4h[8:1]/3hxb[8:1],4h[8:1]/3hxb[8:1],
{4}5h[8:1]/4hxb[8:1],5h[8:1]/4hxb[8:1],6h[8:1]/5hxb[8:1],6h[8:1]/5hxb[8:1],
{4}7-4[8:1]/4,3-7[8:1],8-3[8:1],2-5[8:1],6-1[8:1],4-7[8:1],8-4[8:1],1,
{16}3bx,4bx,3bx,4bx,,,6bx,5bx,6bx,5bx,,,1bxz5[8:4],8bx-4[16:7],1bx,8bx,
{4},,,2x/7x,
{4}1hb[8:1]/2hx[8:1],1hb[8:1]/2hx[8:1],3hb[8:1]/4hx[8:1],3hb[8:1]/4hx[8:1],
{4}4hb[8:1]/5hx[8:1],4hb[8:1]/5hx[8:1],5hb[8:1]/6hx[8:1],5hb[8:1]/6hx[8:1],
{8}7b/8x[8:1],7b/8x[8:1],{4}7hb[8:1]/8hx[8:1],
{4}6hb[8:1]/7hx[8:1],5hb[8:1]/6hx[8:1],
{4}3hb[8:1]/4hx[8:1],1hb[8:1]/2hx[8:1],5hb[8:1]/6hx[8:1],7hb[8:1]/8hx[8:1],
{4}2pp6[8:11],5^8[8:3],5x,,,1-5b[8:1],1x,,
{16}2b,1b,2b,1b,,,7b,8b,7b,8b,,,4bxw8[8:4],5bxw1[16:7],4b,5b,{4},,,3x/6x,
{8}2-5[8:1],,6-1[8:1],,3^8[8:1],,{16}7x,6,5,4-8[8:1],{8},,1-3[8:1]*-4[8:1],,1x-7[8:1]*-6[8:1],,1x,,5-2[8:1],,7-4[8:1],,1^4[8:1],,{16}5x,6,7,8,5x,6,7,8,{8}1-3[8:1]*-7[8:1],,1x-5[8:1],,1x,,{16}6x,7,8,1,2,3,4,5,6/1x,8,7,6,5,4,3,2,{12}8b/1,7,6,1b,2,3,7b,6,5,2b,3,4,{16}8x,7,6,5,4,3,2,1,8x,1,2,3,4,5,6,7,
{8}E4h[8:6]/B4h[8:6]/B3h[8:6],,E2,E1,,E7,E8,,
{8}1bx-6[8:1],1,2b-5[8:1],2,8b-5[8:1],8,1b-4[8:1],1,7b-4[8:1],7,8b-3[8:1],8,6b^1[8:1],6,{12}2bx,3x,4x,
{8}5bx-2[8:1],5,6b-1[8:1],6,4b-1[8:1],4,5b-8[8:1],5,3b-8[8:1],3,4b-7[8:1],4,2b^5[8:1],2,{16}1bx,8x,7x,6x,{4},
{16}1b,5b,1b,5b,{8}2bx/6bx,3bx/7bx,{4}4bx/8bx,{8}1b/5b,3b/7b,,2b/6b,,1b/5b,{32}E1,E8,E7,E6,E5,E4,E3,E2,{4}C,,1s5[8:8],7-3[8:1]*-3[8:1],,1xs5b[8:2],,,
{1}7h[8:16],,5h[8:16],,4h[8:16],,{8}2h[8:16],,,1,,,8,,{2},8-5[8:2],
{4}4x^1[8:3],5,6x/A4,{8},8x^5[8:4],,1,1,,{2}2xh[8:2]/A8,
{4}4x^7[8:3],3,2x/A4,{8},8x^3[8:4],,7,7,,{2}6xh[8:2]/A8,
{4}4xqq4[8:4],5,6x/A4,{8},8xqq1[8:5],,1,1,,{2}2xh[8:2]/A8,
{32}7bxh[8:2]/A1,D2,A2,D3,A3,D4,A4,D5,{4},{32}2bxh[8:2]/A8,D8,A7,D7,A6,D6,A5,D5,{4},
{32}8bxh[8:2]/A2,D3,A3,D4,A4,D5,A5,D6,{4},{8}1x-4[8:1]/7x-2b[8:1],1/7,,,
{32}3bxh[8:2]/A1,D1,A8,D8,A7,D7,A6,D6,{4},{32}6bxh[8:2]/A8,D1,A1,D2,A2,D3,A3,D4,{4},
{1}5xs1[8:4]*z1b[8:4],
{32}1bxh[8:2]/A2,D3,A3,D4,A4,D5,A5,D6,{4},{32}8bxh[8:2]/A7,D7,A6,D6,A5,D5,A4,D4,{4},
{8}1bx/2bx,1h[8:1]/2h[8:1],,4bx/8bx,{16}4/8,3/7,2/6,1/5,8/4,,,,
{32}8bxh[8:2]/A4,D5,A5,D6,A6,D7,A7,D8,{4},{32}3bxh[8:2]/A8,D8,A7,D7,A6,D6,A5,D5,{4},
{4}2x-4-1-5b[8:4],5x-8-6[8:2],,,
{4}1,2,3,4,8,7,6,5,1,2/8,3/7,4/6,{1}5bs1s5[8:6],
{8}2,2,7,7,1,1,8,8,3,3,6,6,4,4,5,5,{16}4,6,4,6,4,6,4,6,3,7,3,7-2[16:3],3-6b[8:1],,,,
{4},,,6x/2x-5[8:1],
{8}6xV82<7[8:4]/2bx,,4,,5,,4-2[8:1]*-1[8:1],,4-6[8:1]*-7[8:1],,4,,1,1,7,7,5,5,4/6,4/6,3V17^2[8:4],,4,,3,,4w8[8:1],,4,,2x/6x-1[8:1],,
{8}2xV46>3[8:4]/6bx,,8,,1,,8-6[8:1]*-5[8:1],,8-2[8:1]*-3[8:1],,8,,5,5,1,1,7,7,6/8,6/8,1-3[8:1]/5-7[8:1],,1/5,,{16}4bx,8bx,4bx,8bx,3bx,7bx,2bx,6bx,{24}1x,8,7,6,5,4,3,2,1,8,7,6,
{8}Cf,,8/3,,{16}1,2,1,2,1<5[8:1],,,,5x,4,3,2,4x,3,2,1,3x,2,1,8,7,6,5,4,
{8}Cf,,1/6,,{16}8,7,8,7,8>4[8:1],,,,4x,5,6,7,5x,6,7,8,6x,7,8,1,2,3,4,5,
{8}Cf,,4/8,,{16}2,1,2,1,2>6[8:1],,,,6x,7,8,1,7x,8,1,2,3/4x,5,6,7,8/1x,2,3,4,
{8}6-1[8:1],6,2-5[8:1],2,8-3[8:1]*-5[8:1],8,8bx,,
{16}1x,2x,3x,4x,7x,8x,1x,2x,5x,6x,7x,8x,3x,4x,5x,6x,
{4}7w3b[8:1],7b/C/B2/B3/B4,{8}5x^8[8:1],5x,{16}1x,2,3,4,{8}1bx^6b[8:1],1x,{16}5x,4,3,2,
{8}5x^8[8:1],5x,{16}1x,2,3,4,1x/5x,4,3,2,1x/7x,2,3,4,1x/5x,4,3,2,1x/7x,2,3,4,
{8}1V75^8[8:4]x/5x,,2,,3,,4,4,3^8[8:1],3,6,6,7v4[8:1],7,1,1,2^5[8:1],2,5,5,6v1[8:1],6,5,5,,5b/1x,4b/8,3b/7,2b/6,8x/1b,7/2b,6/3b,{16}4xb,5,4xb,5,4xb,5,4xb,5,4xb-8[8:1],5,4xb,5,4xb,,,,
{4}7x^4[8:3],8,1x/A7,{8},3x^6[8:4],,2,2,,{2}1xh[8:2]/A3,
{4}2x^5[8:3],1,8x/A2,{8},6x^3[8:4],,7,7,,{2}8xh[8:2]/A6,
{4}2h[8:2]/8,8,2h[8:2]/7,7,2h[8:2]/6,6,2h[8:2]/5,5,
{4}6h[8:2]/4,4,6h[8:2]/5,5,6h[8:2]/7,7,6h[8:2]/8,8b,
{8}2-6[8:1],2,7,7,8-4[8:1],8,2,2,1-5[8:1],1,6,6,7x/4x,7x/4x,3,3,
{8}7-3[8:1],7,2,2,1-5[8:1],1,7,7,8-4[8:1],8,2,2,1x/5x,1x/5x,6,6,
{16}8b,7,8b,7,8b,7,8b,7,8b,7,8b,7,8b,7,8b,7,8b,7,8b,7,8b,7,8b,7,8b,7,1x/6x,,,,2x/5x,,
{24}8b,7,8bx,7x,8b,7,8bx,7x,8b,7,8bx,7x,8bxh[24:1],7xh[24:1],8bxh[24:1],7xh[24:1],8bxh[24:1],7xh[24:1],8bxh[24:1],7xh[24:1],8bxh[24:1],7xh[24:1],8bxh[24:1],7xh[24:1],
{12}E2,,E3,,E4,,E8,,E7,,E6,,
{4}2-5-3-6-1-7-2[8:12],8,7,6,5,4,5,6,7-4-6-2-8-3-7b[8:12],1,2,3,4,3,2,1,
{16}8bx,8x,8x,8x,8x,8x,8x,8x,{16}8bx,7,6,5,{24}4,3,2,1,8,7,
{4}6x-1[8:1],2x-5[8:1],8xv5[8:1]*v3b[8:1],8x,
{8}1bx,2bx-8b[8:1]/7bx-4[8:1],,7bx/2bx-5[8:1],,6bx/2bx,8bx,,
{16}2bx,1,2,,7bx,8,7,,3bx,4,3,,6bx,5,6,,
{4}2bxh[8:1]/1bxh[8:1],8bxh[8:1]/3bxh[8:1],7bxh[8:1]/4bxh[8:1],6bxh[8:1]/5bxh[8:1],
{8}3x,3,2x/6x,2/6,7x,7,4x/8x,4/8,
{8}3bx,7bx-1b[8:1]/2bx-5[8:1],,2bx/7bx-4[8:1],,3bx/7bx,1bx,,
{8}1x/5x,1/5,2x,2,3x/7x,3/7,8x,8,
{16}1bx,1x,1x,1x,1x,1x,1x,1x,{16}1bx,2,3,4,{24}5,6,7,8,1,2,
{4}3x-8[8:1],7x-4[8:1],2x-5[8:1]*-7b[8:1],2x,
{8}4bx,8bx-4b[8:1]/3bx-1[8:1],,8bx-6[8:1]/3bx,,8bx,2bx,,
{16}3bx,4,3,,5bx,2,5,,1bx,6,1,,7bx,8,7,,
{4}1xq6[8:3],8,7x/A1,{8},5xq2[8:4],,4,4,,{2}3xh[8:2]/A5,
{4}4xqq1[8:6],6,7x/A4,{8},8xqq5[8:6],,2,2,,{2}3xh[8:2]/A8,
{4}4h[8:4],5,6h[8:4],3,2h[8:4],5,4h[8:2],1,{16}8b,4b,8b,4b,8b,4b,8b,4b,8b,4b,8b,4b,8bV24<8[8:7],4bV68>4b[16:13],8b,4b,
{1},1xh[8:48]/5xh[8:28],,,,{8}B4,B3,B2,B1,B8,B7,B6,B5,E4,E3,E2,E1,E8,E7,E6,E5,
{8}D4,D3,D2,D1,D8,D7,D6,D5,7h,5h,6h,4h,5h,3h,4h,2h,
