&title=Melodiniq
&artist=onoken a.k.a. owl*tree
&first=0.03
&des=QZKago Requiem
&lv_7=宴
&inote_7=(193){4},,,,{2}1,
2b,
3,4b,
5,6b,
7,8b,
3,4b,
5,6b,
6/3,{8}4/5,3,3,{24}3,4,5,
{8}6,6,{24}7,6,5,2,3,4,{8}5,{24}7,6,5,{8}4,1/8,
{16}3,4,2,6,5,7,3,4,2,6,5,7,3,4,1,6,
5,8,3,4,1,6,5,8,3,5,1,6,4,8,3,5,
1,6,4,8,{8}3b,4/5,3/4,2b/3b,1/2,1/8,
7/8,6/7,{4}5b/6b,4/5,8/1,
{16}3,4,2,6,5,7,3,4,2,6,5,7,3,4,1,6,
5,8,3,4,1,6,5,8,3,5,1,6,4,8,3,5,
1,6,4,8,{8}3b,4/5,3/4,2b/3b,1/2,1/8,
7/8,6/7,{4}5b/6b,5/4,8/1,
{16}3,4,2,6,5,7,3,4,2,6,5,7,3,4,1,6,
5,8,3,4,1,6,5,8,3,5,1,6,4,8,3,5,
1,6,4,8,{8}3b,4/5,3/4,2b/3b,1/2,1/8,
7/8,6/7,{4}5b/6b,5/4,8/1,
{16}3,4,2,6,5,7,3,4,2,6,5,7,3,4,1,6,
5,8,3,4,1,6,5,8,3,5,1,6,4,8,3,5,
{1}1pp7[2:3],
6h[4:3]/5h[4:3],
{12}4h[12:1],5h[12:1],3h[12:1],5h[12:1],4h[12:1],6h[12:1],3h[12:1],4h[12:1],2h[12:1],6h[12:1],5h[12:1],7h[12:1],
{48}3$,6$,,,,,,,,,,,{8}4,4,5,5,{4}6/3,
{12}4h[12:1]/4h[12:1],5h[12:1],3h[12:1],5h[12:1],4h[12:1],6h[12:1],3h[12:1]/3h[12:1],4h[12:1],2h[12:1],6h[12:1],5h[12:1],7h[12:1],
{48}3$,6$,,,,,,,,,,,{8}4,4,5,5,{4}6/3,
{12}4h[12:1]/4h[12:1],5h[12:1],3h[12:1],5h[12:1]/5h[12:1],4h[12:1],6h[12:1],3h[12:1]/3h[12:1],4h[12:1],2h[12:1],6h[12:1]/6h[12:1],5h[12:1],7h[12:1],
{48}3$,6$,,,,,,,,,,,{8}4,4,5,5,{4}6/3,
{16}4,4,5,3,5,5,4,6,3,3,4,2,6,6,5,7,
{48}3$,6$,,,,,,,,,,,{8}4,4,5,5,{4}6/3,
{12}4h[12:1]/4h[12:1],5h[12:1],3h[12:1],5h[12:1]/5h[12:1],4h[12:1],6h[12:1],3h[12:1]/3h[12:1],4h[12:1],2h[12:1],6h[12:1]/6h[12:1],5h[12:1],7h[12:1],
{48}3$,6$,,,,,,,,,,,{8}4,4,5,5,{4}6/3,
{16}4,4,5,3,5,5,4,6,3,3,4,2,6,6,5,7,
{48}3$,6$,,,,,,,,,,,{8}4,4,5,5,{4}6/3,
{12}4h[12:1]/4h[12:1],5h[12:1],3h[12:1],5h[12:1]/5h[12:1],4h[12:1],6h[12:1],3h[12:1]/3h[12:1],4h[12:1],2h[12:1],6h[12:1]/6h[12:1],5h[12:1],7h[12:1],
{48}3$,6$,,,,,,,,,,,{8}4,4,5,5,{4}6/3,
{16}4,4,5,3,5,5,4,6,3,3,4,2,6,6,5,7,
{48}3$,6$,,,,,,,,,,,{4}5h/4h,{48}1/8,2/7,3/6,4/5,,,{8}1b/2,,,{1}7-3[2:3]/2-6[2:3],
,5h[4:3]/4h[8:7],
{8},,,,,,,6,
{6}4h[12:1]/4h[12:1]/6h[2:3],3h[12:1],4h[12:1],3h[12:1]/3h[12:1],2h[12:1],5h[12:1],
{4}3$,{8}4,4,{4}4,6/3,
{16}4/6h[2:3],4,,3,,,{8}4,{16}3,3,,2,,,{8}5,
{4}3$,{8}4,4,{4}4,6/3,
{12}2h[2:3],5h[12:1],,5h[12:1]/5h[12:1],,6h[12:1],,4h[12:1],,6h[12:1]/6h[12:1],,7h[12:1],
{48},6$,,,,,,,,,,,{8}5,5,{4}5,6/3,
{8}2h[2:3],5,{16}5,5,,6,,,{8}4,{16}6,6,,7,
{48},6$,,,,,,,,,,,{8}5,5,{4}5,6/3,
{12}2h[2:3],5h[12:1],,5h[12:1]/5h[12:1],,6h[12:1],,4h[12:1],,6h[12:1]/6h[12:1],,7h[12:1],
{48},6$,,,,,,,,,,,{8}5,5,{4}5,6/3,
{8}2h[2:3],5,{16}5,5,,6,,,{8}4,{16}6,6,,7,
{48},6$,,,,,,,,,,,{8}5,5,{4}5,6/3,
{12}4h[12:1]/4h[12:1],5h[12:1],3h[12:1],5h[12:1]/5h[12:1],4h[12:1],6h[12:1],3h[12:1]/3h[12:1],4h[12:1],2h[12:1],6h[12:1]/6h[12:1],5h[12:1],7h[12:1],
{48}3$,6$,,,,,,,,,,,{8}4,4,5,5,{4}6/3,
{16}4,4,5,3,5,5,4,6,3,3,4,2,6,6,5,7,
{48}3$,6$,,,,,,,,,,,{8}4,4,5,5,{4}6/3,
{20}4/4,5/5,4,5,,3/3,6/6,3,{10}6,{20}2/2,7/7,2,7,,1/1,8/8,1,{10}8,
{24}2,7,3,6,4,5,{32}4,3,2,1,8,7,6,5,4,3,2,1,8,7,6,5,4,3,2,1,8,7,6,5pp5[32:17],
{1}4qq4[2:1],
(196){20}4/4,5/5,4,5,,3/3,6/6,3,{10}6,{20}2/2,7/7,2,7,,1/1,8/8,1,{10}8,
{12}2,2,2,7,7,7,{4}7/5,{16}5,7,{48}3$,6$,,,,,{24}4,
5,4,5,4,5,3,6,3,6,3,6,2,7,2,7,2,7,1,8,1,8,1,8,
2,7,3,6,4,5,{32}4,3,2,1,8,7,6,5,{4}4,6/3,
{20}4/4,5/5,4,5,,3/3,6/6,3,{10}6,{20}2/2,7/7,2,7,,1/1,8/8,1,{10}8,
{12}2,2,2,7,7,7,{4}7/5,{16}5,7,{48}3$,6$,,,,,{24}4,
5,4,5,4,5,3,6,3,6,3,6,2,7,2,7,2,7,1,8,1,8,1,8,
2,7,3,6,4,5,{32}4,3,2,1,8,7,6,5,{4}4,6/3,
{20}4/4,5/5,4,5,,3/3,6/6,3,{10}6,{20}2/2,7/7,2,7,,1/1,8/8,1,{10}8,
{12}2,2,2,7,7,7,{4}7/5,{16}5,7,{48}3$,6$,,,,,{24}4,
5,4,5,4,5,3,6,3,6,3,6,2,7,2,7,2,7,1,8,1,8,1,8,
2,7,3,6,4,5,{32}4,3,2,1,8,7,6,5,{4}4,6/3,
{24}4,5,4,5,4,5,3,6,3,6,3,6,2,7,2,7,2,7,1,8,1,8,1,8,
2,7,3,6,4,5,{4}4,3/6,{48}3$,6$,,,,,,,,,,,{24}4,
5,4,5,4,5,3,6,3,6,3,6,2,7,2,7,2,7,1,8,1,8,1,8,
2,7,3,6,4,5,{32}4,3,2,1,8,7,6,5,{4}4,5/3/4/6h[#0.3061218],
(206){16}4,4,5,3,5,5,4,6,3,3,4,2,6,6,5,7,
3,6,{24}4,5,4,5,4,5,3,6,3,6,3,6,2,7,2,7,2,7,1,8,1,
8,1,8,2,7,3,6,4,5,{96}4,,,3,,,{32}2,1,8,7,6,5,4,3,2,1,8,7,6,5,4,3,2,1,
8,7,6,5,{8}4p7[16:7],,,{4}6,5/6h[#0.2912598],
(209){16}4,4,5,3,5,5,4,6,3,3,4,2,6,6,5,7,
3,6,{24}4,5,4,5,4,5,3,6,3,6,3,6,2,7,2,7,2,7,1,8,1,
8,1,8,2,7,3,6,4,5,{96}4,,,3,,,{32}2,1,8,7,6,5,4,3,2,1,8,7,6,5,4,3,2,1,
8,7,6,5,{8}4p7[16:7],,,{4}6,5/6h[#0.2870789],
(212){16}4,4,5,3,5,5,4,6,3,3,4,2,6,6,5,7,
3,6,{24}4,5,4,5,4,5,3,6,3,6,3,6,2,7,2,7,2,7,1,8,1,
(215)8,1,8,2,7,3,6,4,5,{96}4,,,3,,,{32}2,1,8,7,6,5,4,3,2,1,8,7,6,5,4,3,2,1,
8,7,6,5,{8}4p7[16:7],,,{4}6,5/6h[#0.279068],
(218){16}4,4,5,3,5,5,4,6,3,3,4,2,6,6,5,7,
3,6,{24}4,5,4,5,4,5,3,6,3,6,3,6,2,7,2,7,2,7,1,8,1,
(221)8,1,8,2,7,3,6,4,5,{96}4,,,3,,,{32}2,1,8,7,6,5,4,3,2,1,8,7,6,5,4,3,2,1,
8,7,6,5,{8}4p7[16:7],,,{4}6,5/6h[#0.271492],
(224){16}4,4,5,3,5,5,4,6,3,3,4,2,6,6,5,7,
3,6,{24}4,5,4,5,4,5,3,6,3,6,3,6,2,7,2,7,2,7,1,8,1,
(227)8,1,8,2,7,3,6,4,5,{96}4,,,3,,,{32}2,1,8,7,6,5,4,3,2,1,8,7,6,5,4,3,2,1,
8,7,6,5,{8}4p7[16:7],,,{4}6,5/6h[#0.2643204],
(230){16}4,4,5,3,5,5,4,6,3,3,4,2,6,6,5,7,
3,6,{24}4,5,4,5,4,5,3,6,3,6,3,6,2,7,2,7,2,7,1,8,1,
8,1,8,2,7,3,6,4,5,{96}4,,,3,,,{32}2,1,8,7,6,5,4,3,2,1,8,7,6,5,4,3,2,1,
8,7,6,5,{8}4-1[16:9],,,{4}5-8b[8:1],5b,
(236)7b/2b,6b,6b,6b,
6b,6b,6b,6b,
8b/1b,3b,3b,{8}3,3,
{24}3,4,5,6,,,{8}6,{24}7,6,5,2,3,4,5,,,7,6,5,4,,,{4}1/8,
6b,6b,6b,
6b,6b,{8}5/4,3,3,{24}3,4,5,
{8}6,6,{24}7,6,5,2,3,4,{8}5,{24}7,6,5,{8}4,8<2[16:7]/1>7[16:7],
,,,,,,,,3b,
4/5,3/4,2b/3b,{4}1/2,6,
{8}3b,4/5,3/4,2b/3b,{2}1/2,
{8}2b/3b,1/2,1/8,7/8,6/7,5b/6b,,4/3,
2b/3b,1/2,1/8,7/8,6/7,5b/6b,,,,4,
{4}4/5,{8}3b,4/5,3/4,3h[2:1]/2h[2:1],
1,8,7,6,6h[8:3]/5h[8:3],4,{4}3,
{8},,3b,4/5,3/4,3h[2:1]/2h[2:1],1,8,
7,6,{4}6h[2:1]/5h[2:1],,,(240),
7bh/2bh,6,5,
4,3,2/7,8/1,
{8}7,7,{4}7,{8}2,2,{4}2,
{16}5,4,5,4,{4}5,7/2,{20}1,8,1,8,1,
{4}8,{16}7/2,{80},,,,,,,,,,8,,,,1,,,,8,,,,1,,,,8,,,,{16}1,{4}8,
{8}1,1,{4}2/7,{8}8,8,{4}7/2,
{20}1,8,1,8,{80}1,,,,,8,,,,,,,,,{40}8,,1,,8,,1,,8,{80},,,1,,,,,,,,,{20}1,8,1,8,1,
{80},8,,,,,,,,,{40}8,,1,,8,,1,,8,{80},,,1,,,,,,,,,{4}7/2,5/4,
6/3,{20}8,1,8,1,8,1,8,1,8,1,8,1,8,1,8,
{4}1,{20}1,8,1,8,1,8,1,8,1,8,1,8,1,8,1,
8b,,,,,,,7b,,,,,,,,{4}6b,
{20},,,5b,,,,,,,{4}4b,3b,
7b/2b,{20}8,1,8,1,8,1,8,1,8,1,8,1,8,1,8,
{4}1,{20}1,8,1,8,1,8,1,8,1,8,1,8,1,8,1,
8b,,,,,,,7b,,,,,,,,{4}6b,
{20},,,5b,,,,,,,{4}4b,3b,
7b/2b,{20}8,1,8,1,8,1,8,1,8,1,8,1,8,1,8,
{4}1b,{20}1,8,1,8,1,8,1,8,1,8,1,8,1,8,1,
{4}8b,{20}8,1,8,1,8,1,8,1,8,1,8,1,8,1,8,
{4}1b,{20}1,8,1,8,1,8,1,8,1,8,1,8,1,8,1,
{4}8b,{20}8,1,8,1,8,1,8,1,8,1,8,1,8,1,8,
{4}1b,{20}1,8,1,8,1,8,1,8,1,8,1,8,1,8,1,
{4}8b,{20}8,1,8,1,8,1,8,1,8,1,8,1,8,1,8,
{4}1b,{20}1,8,1,8,1,8,1,8,1,8,1,8,1,8,1,
{1}8V64z8V24s8b[1:6],
{2},,,,,,,,,,,(265)1x>8[16:47],
{1},,{4},,{16},5h[16:55],
E
