&title=残機
&artist=ずっと真夜中でいいのに。
&first=0
&lv_5=13
&des_5=-NICOLABULA-
&inote_5=
(141){4},{2},{4}C,
{16}6h[8:1]/4h[16:3],{4},{16}6,{8}4,{16}3h[8:1]/5h[16:3],{4},{16}3,{8}5,
{16}6h[8:1]/4h[16:3],{4},{16}6,{8}4,{16}7-3[8:1],7h[16:3],{4},{8},{16}4h[8:1]/2h[16:3],
{4},{16}4,{8}2,{16}6h[16:3]/4h[8:1],{4},{16}4,{8}6,
{16}3h[8:1]/5h[16:3],{4},{16}3h[16:5],{8}5-1[8:1],{2},{8}7/5,
{16}7h[16:1],5,,6h[16:1],{8}4,5/3,{16}2h[16:1],4,,3h[16:1],{8}5,
4/6,{16}7h[16:1],5,,6h[16:1],{8}4,{16}3-8[8:1],3h[16:3],{4},{8},7/1,
{16}8h[16:1],2,,7h[16:1],{8}1,6/4,{16}7h[16:1],5,,6h[16:1],{8}4,
2/8,{16}3h[16:1],5,,4h[16:1],{8}6-1[8:1],{2}5h[8:1],
{4}8-6[8:1],2-4[8:1],5,{16}5,4,5,4,
{8}7h[4:1],5,4h[2:1],6,7-4[8:1],8,{4}7,
1-3[8:1],7-5[8:1],4,{8}4h[8:1],5h[8:1],
{16}3,4,3,4,{8}2,5h[8:3],2-5[8:1],1,{4}2,
8-6[8:1],2-4[8:1],5,{8}5,{16}4,4,
{8}7h[4:1],5,4h[2:1],6,7-4[8:1],8,{4}7,
1-3[8:1],1/7-5[8:1],7/4-8[8:1],4/1>7[4:1],
{2}1/7p1[4:1],Cf,
{4}6/2-4[8:1],8/2V86[16:3],2/5,{16}4,4,{8}7,
4h[4:1],6,7h[4:1],5,4-1[8:1],5,{4}4,
2/7-5[8:1],1/7V13[16:3],7/4,{8}5,4,
5h[8:1],{16}3,4,{8}2h[8:1],{16}4,3,{8}5-8[8:1],4,{4}5,
7/2-4[8:1],8/2V86[16:3],2/5,{16}4,5,4,5,
{8}4h[8:1],{16}6,5,{8}7h[8:1],{16}5,6,{8}4-1[8:1],5-8[8:1],4,5,
2h[8:1],1h[8:1],4p8[8:1],5h[8:1],{4}4,{8}5/1,3b/7b,
,7/3,3/7,7/3,3/7,7/3,6/2,5/1,
4-7[8:1]/8-3[8:1],8h[8:1]/4h[8:1],{4},{8}4/8-5[8:1],8h[8:1]/4h[8:1],,3>6[4:1],
,3/6<3[4:1],,4,5-8[8:1],5h[8:1],{4},{8}3-8[8:1]/7-4[8:1],
7h[8:1]/3h[8:1],{4},{8}5/1-4[8:1],1h[8:1]/5h[8:1],,7<3[4:1],
,7/3V57[16:5],2,1,{4}8-5[8:1]*-3[8:1],8,
{16}4h[16:3],{8},{16}5,{8}4,4,{16}4/6h[16:3],{8},{16}5,{8}6,4/7,
{16}4/7h[16:3],{8},{16}5,{8}6,4/7,{16}3/8h[16:3],{8},{16}2,{8}1-4[8:1],8/2,
{16}1b/5b,{8},{16}6,{8}5-8[8:1],3/6,{16}5b/1b,{8},{16}2,{8}1w5[8:1],8/2,
{4}1b>1[2:1],{2},{4}Cf,
{16}3,4,,4/5,,5,{8}6h[8:1],{16}1,7,,8/1,,2h[8:3],{8}1,
{32}1bx,8x,{16}7x,,{32}1b-5b[16:3],8x,{4}7x,,2<7[8:1]/7<4[8:1],
2b/7V13[8:1],7x<4[8:1]/4x>1[8:1],7b/4xV68[8:1],1x>4q1[4:1],
1/8x<5p8[4:1],8,{8}2,3,{4}7<4[8:1]/4>1[8:1],
7b/4V68[8:1],4x>1[8:1]/1x<6[8:1],4b/1xV35[8:1],5/1x<4b[4:1],
{8}1/4,3,2,1/5,{16}2/4,4/2h[16:3],{8},{16}8<4[8:1],2,{8}7,
{4}8b>3[8:1]/4bpp6[8:1],8<4[8:1],4bpp6[8:1]/8b>3[8:1],4/8<5p8[4:1],
8/4>1p4[4:1],4,{8}7,6,{4}2>5[8:1]/5<8[8:1],
2b/5xV38[8:3],{8}5x/1x,8,7,6,5,4,
{16}3/5,3/5,{8},{16}5,5,2,2,8,8,1,1,8,7,6,5,
{4}4h[8:1]/1h[16:11],6h[8:1],{16}8h[8:1],{8},{16}8,{8},8h[4:3],
,4,4,3,3,2,{4}1h[16:15],
5h[8:1],7h[8:1],{16}8h[8:1],{8},{16}8,{8},8h[4:3],
,4,4,3,2,2,{4}1h[16:15],
5h[8:1],7h[8:1],{16}8h[8:1],{8},{16}8,{8},8h[4:3],
,4,4,3,2,2,{4}1h[16:15],
5h[8:1],7h[8:1],{16}8h[8:1],{8},{16}8,{8},8h[8:5],
{4},{8}3,2,{4}1<5[4:1],5>2[4:1],
{8}Cf,{4},{16}6,6,{8}B4,{4},{16}8,8,
{8}E3,{4},{16}3,3,{8}B5,{4},{16}1,1,
{2}E7,{8}5h[8:3],{4},{16}3,3,
{2}E6,{8}7h[8:3],{4},{16}5,5,
{4}7,7,7/B4,{8}7,B3,
{4}7,7/B2,7,{8}7,B1,
{4}7,6,6/E1,{8}6,E2,
{4}6,{16}6,{8},{32}E3,B3,{4}6/B4,{8}6,5,
{2}6/4>7[2:1],{32}E7,B6,{4},{16},,,{2}8/5<2[2:1],
{32}B3,B4,{4},{16},,,{2}1/5V38[2:1],
{32}E7,B6,{4},{16},,,{2}8/4V61[2:1],
{32}E3,B3,{4},{16},,,{2}1/5>2q7[2:1],
{32}A6,D6,{4},{16},,,{2}8/4<7p2[2:1],
{32}A3,D4,{4},{16},,,{2}1/5>2v7[2:1],
{32}A6,D6,{4},{16},,,{2}8/4<7v2[2:1],
{32}A3,D4,{4},{16},,,1/5V31[2:1],
{8},{16}8,{8},7,,6,{16},6h[16:9],{8},{16}1,
{8},{16}2,{8},3,,4h[8:1],7h[8:1],5,
{4}8h[4:1],{24}4x,8x,4x,8x,4x,8x,4x,8x,4x,8x,4x,8x,{8}4xw8[8:1],6/2,
{4}4b,{2},{4}2<7[8:1]/7<4[8:1],
2b/7V13[8:1],7x<4[8:1]/4x>1[8:1],7b/4xV68[8:1],1-3-8[4:1],
1/8-3-7[4:1],4,{8}4,5,{4}6<1[8:1]/1>4[8:1],
6b/1V75[8:1],1x>4[8:1]/4x<7[8:1],1b/4xV28[8:1],4x/8x>5b[4:1],
{8}5,6,7,8/4,{16}7/5,5/7h[16:3],{8},{16}1>5[8:1],7,{8}2,
{4}1b<6[8:1]/5bqq3[8:1],1>5[8:1],5bqq3[8:1]/1b<6[8:1],5/1>4q1[4:1],
1/5<8q5[4:1],5,{8}2,3,{4}7<4[8:1]/4>1[8:1],
7b/4xV61[8:3],{8}4x/8x,1,2,3,4,5,
{16}4/6,4/6,{8},{16}6,6,2,2,8,8,3,3,8,7,6,5,
3/4h[8:3],{8},{16}2,{8},1h[8:5],{16}4b,{8},{16}4b,,{32},4b,{8}5x,
{32}4b,5,6,7,8,1,2,3,4,5,6,7,8b/A1f,B1,C,B5,{8}A5,{4},{16}5,6,
{8}4h[8:1],{16}5,4,{8}6h[8:1],{16}4,4,{8}5h[8:1],{16}3,4,{8}2h[8:1],4,
3b/5b,7b/1b,4b/5b,{32}8b/2b,7,6,5,{8}4h[8:1],3,{4}6<1[8:1]/1>4[8:1],
6b/1V75[8:1],1x>4[8:1]/4x<7[8:1],1b/4xV28[8:1],7-5-8[4:1],
7/8-5-1[4:1],4,{8}4,3,{4}2<7[8:1]/7<4[8:1],
2b/7V13[8:1],7x<4[8:1]/4x>1[8:1],7b/4xV68[8:1],4x/2,
{16}3,8,3,4,3,7,3,4,3,6,3,4,3,5,3,4,
{8}3h[4:3],{4},,,{8}3,
{32}6,{16},{32}6,{16},6h[16:1],{32}4,{16},{32}5,{16},5h[16:1],{32}3,{16},{32}4,{16},4h[16:1],{8}2,{16}3,5,
4,6h[8:1],,4,4,6,6-3[8:1],5,,4,{8}6,2,{16}1,1,
4h[16:3],{8},{16}3,5-7[8:1],4,{8}3-1[8:1],5-1[8:1],3,5,{16}4,4,
{4}3h[8:1]/8h[8:1],6h[8:1]/1h[8:1],{16}1,6,3,8,4,7,2,5,
{8}3h[8:1]/6-3[8:1],5,6/2-7[8:1],1,{4}2/6h[4:1],{16}8,1,2,3,
{8}4/6,3/7,8/2,7/1,6/2,5/3,4/6,8/2,
{4}7/1h[4:1],{16}6,8,6,8,{4}6h[4:1],{16}4,6,4,6,
{8}4h[8:1],{16}5,5,{8}4h[8:1],{16}6,6,{8}4h[8:1],{16}7,7,{8}4h[8:1],{16}8,8,
{8}4h[8:1],{16}1,1,{8}4h[8:1],{16}2,2,{32}1bx,8,7,6,5,4,3,2,{4}1/Cf/E1/E3/E7/E5,
