&title=あかいねこをさがして、さがして。
&artist=MisomyL
&first=0.02
&des_5=你是什么小猫咪呀ฅ^•ω•^ฅ
&lv_5=13+
&des=你是什么小猫咪呀ฅ^•ω•^ฅ
&clock_count=4
&inote_5=(128)
{1},,
{16}5x,,6h[8:1],,5,6,4,,5x,,6h[8:1],,5,6,4,,5x,,6h[8:1],,5,6,4,5,3xh[8:1],,
{24}5x,4,6,5x,,,7x,,,
{16}4x,,3h[8:1],,4,3,5,,4x,,3h[8:1],,4,3,5,,4x,,3h[8:1],,4,3,5,4,6xh[8:1],,
{24}4x,5,3,4x,,,2x,,,
{16}5x,,7h[8:1],,5,6,3,,5x,,7h[8:1],,5,6,3,,5x,,7h[8:1],,5,6,2,4,3xh[8:1],,
{24}5x,4,6,5x,,,7x,,,
{16}4x,,2h[8:1],,4,3,6,,4x,,2h[8:1],,4,3,6,,4x,,2h[8:1],,4,3,7,5,6xh[8:1],,
{24}8x<7<6>5>4[8:1],1,2,3xh[8:1],,,,,,
{16}2q6[8:1],,6,,2,,7,7,1q5[8:1],,6,,1,,7,7,4h[4:1],,1,,6h[4:1],,7,,5-1[8:1],,4,,8,,,,
{16}7p3[8:1],,3,,7,,2,2,8p4[8:1],,3,,8,,2,2,5h[4:1],,8,,3h[4:1],,2,,4-8[8:1],,5,,1,,,,
{16}2h[8:1],,,,E8,,E1,,7h[8:1],,,,C,,B6,,3h[8:1],,,,C,,B2,,6h[8:1],,,,E4,,E5,,
{8}4,3,6,7,3,2,7<1[8:5],8,1x,,,,,,{24}E8,E7,E6,,,,
{8}2/4,3,4/E7`B6,3,2/4,3,4/E7`B6,3,2/5,6,7/B4`E5,6,2/5,6,7/B4`E5,6,
5/4,3,2/B5`E5,3,5/4,3,2/B5`E5,3,4/5,6,7/B4`E5,6,4/5,6,
{16}7,5,6,4,
{8}5-8[8:1],5,2,2,8-5[8:1],8,4,4,5-8[8:1],5,1,1,3/7,5,4/3,2,
1-4[8:1],1,5,5,4-1[8:1],4,7,7,1-4[8:1],1,6,6,7/5,6,
{16}3,4,2,5,
{8}1-5[8:1],1,6,7,4-8[8:1],4,7,6,1-5[8:1],1,6,7,4/8,2,1/7,6,
5-1[8:1],5,2,3,8-4[8:1],8,3,2,5<3[4:1],3,5x,,4w8[8:1],,4,,
{16}2-5[8:1],,3,,8/2,,1,1,2-5[8:1],,3,,8/2,,1,1,2-5[8:1],,3,,8-4[8:1],,7,,3,,2,,1/6,,,,
7-4[8:1],,6,,1/7,,8,8,7-4[8:1],,6,,1/7,,8,8,7-4[8:1],,6,,1-5[8:1],,2,,6,,7,,8/3,,,,
2<7[8:1],,3,,5-8[8:1],,6,6,2<7[8:1],,3,,5-8[8:1],,6,6,4<7[8:1],,2-5-1[4:1],,4,,2,,8,,7,,2/6,,,,
7>2[8:1],,6,,4-1[8:1],,3,3,7>2[8:1],,6,,4-1[8:1],,3,3,5>2[8:1],,7-3[8:1],,5,,7,,A1,,A8,,B2/B7/E3f/E7f/B6/B3,,,,
{4}5<3[4:6],E3,,E1,,E7,,E5,
4<7>2[4:6],E2,,E8,,E6,,E4,
3<5<7>1[4:6],E1,,E7,,E5,,E3,
2>3<4<5<6<7>8[4:6],E8,,E6,,E4,,E2,
{16}4h[4:1],,,,5-7[12:1],,,,3-5[12:1],,,,8h[4:1],,,,2<7[8:1],,,,6qq4[8:1],,,,2<7[8:1],,,,5,,,,
6h[4:1],,,,5-3[12:1],,,,7-5[12:1],,,,2h[4:1],,,,8<4[8:1],,,,3qq1[8:1],,,,8<4[8:1],,,,2,,,,
3h[4:1],,,,4-6[12:1],,,,2-4[12:1],,,,7h[4:1],,,,1>5[8:1],,,,6pp8[8:1],,,,1>5[8:1],,,,7,,,,
{4}B6h[4:4],B5h[4:3],B4h[4:4],B3h[4:3],,,,,4>3>2<1<8<7<6[4:11],,,,,,,,,,,,5<3[4:1],
,A4hf[4:1]/E4h[4:1]/E5h[4:1],,
{16}6x,,7h[8:1],,5,6,4,,6x,,7h[8:1],,5,6,3,,6x,,7h[8:1],,5,6,2,4,3xh[8:1],,
{24}8x,7,6,5xh[8:1],,,4x,,,
{16}3x,,2h[8:1],,4,3,5,,3x,,2h[8:1],,4,3,6,,3x,,2h[8:1],,4,3,7,5,6xh[8:1],,
{24}1x,2,3,4/5x,6,7,8/1x,,,
{16}6/5h[8:1],,7,,3,4,2,,6/5h[8:1],,8,,3,4,2,,6/5h[8:1],,7,,3qq4[4:1],4,2,4,3,,
{24}5,6,7,8h[8:1],,,5,,,
{16}3/4h[8:1],,2,,6,5,7,,3/4h[8:1],,1,,6,5,7,,3/4h[8:1],,2,,6pp5[4:1],5,7,5,B6f,,
{24}4,3,2,1,,,C,,,
{12}2xh[6:1],5,5,3h[6:1],8,8,2xh[6:1],6,6,3h[6:1],1,1,8/4x,7,6,5/1,2,3,4/6,5,4,3/5,4,3,
{12}2/6xh[6:1],1,1,7h[6:1],4,4,6xh[6:1],2,2,7h[6:1],5,5,4/8x,3,2,1/5,6,7,8/2,3,4,5/3,4,5,
{12}6/2x,3,4,5/8,4,3,2/7x,6,5,4/1,5,6,
{24}4x/7,,3,4,3,,2/5,,8,,1,,7/3,,4,,5,,6/2,,5,,4,,
{24}8,7,6,5h[8:1],,,1,2,3,4h[8:1],,,7,6,5,4h[8:1],,,2,3,4,5h[8:1],,,
6b,7x,8x,1x,2x,3x,6b,7x,8x,1x,2x,3x,6b,7x,8x,1x,2x,3x,6b,7x,8x,1x,2x,3x,
{4}5b>4-2-5[4:2]b*<6-8-5[4:2]b,,,,
{8}4<7[8:1]b/6,2pp1[4:1],4,2,8,6,4/8,,
{16}6b>3[8:1],,7/5,,2/6,,1,1,6b>3[8:1],,7/5,,2/6,,1,1,
{8}5>2[8:1]b,7qq8[4:1],5,7,1,3,5/1,,
{16}8/4b<7[8:1],,3,,2/4,,1,1,8b>3[8:1],,6,,7/8,,6,6,5<8[8:1]b,,3pp5>1[4:1],,5,,3,,8,,6,,8/4,,,,
1/5b>2[8:1],,6,,7/5,,8,8,1b<6[8:1],,3,,2/1,,3,3,
{24}6h[4:1],,5,,5,,3h[4:1],,4,,4,,2-6[8:1]b,1,8,7,6,5,4/2b,,,,,,
{12}7,7,5,6,6,5,7,7,5,6,5,4,
3,3,4,2,2,4,3,3,4,2,1,8,
7,7,5,7,8,6/1,2,2,4,3,5,2/6,
{16}7h[32:1],5h[32:1],6h[32:1],4h[32:1],5h[32:1],3h[32:1],4h[32:1],2h[32:1],
{24}1b,8,7,6,5,4,3,2,1,8,7,6,
{12}3-8[8:1]/5,2,2,4<7[8:1]/3,5,5,4/1-5[8:1],2,2,1/6<1[8:1],7,7,6/4-8[12:1],3,3,4/7p3[8:1],6,6,7/1,2,2,5,4/6,3/7,
{24}8b/2,7,6,5,,,7b/1,6,5,4,,,2b/6,3,4,5,,,1b/7,2,3,4,,,
{24}8b/1b,7,6,5/4,3,2,8b,1,8,1,8,1,7b,2,7,2,7,2,6b,3,6,3,6,3,
{16}4bh[128:1]/5bh[128:1],
E
