&title=待チ人ハ来ズ。
&artist=豚乙女
&first=0
&des=ドライも
&wholebpm=160
&first_4=
&first_5=0
&lv_5=12
&lv_6=12+
&inote_4=(160)
{1},
{16}1>7[4:3],,,,,,,,,,,,8,,,,
{16}8<2[4:3],,,,,,,,,,,,1,,,,
{16}1-6[4:1],,,,6-2[4:1],,,,2-5[4:1],,,,5V37[2:1],,,,
{16}8h[4:3],,,,,,,,,,,,1,,,,
{16}3h[8:3],,,,,,5,,3h[8:3],,,,,,6,,
{16}3h[8:3],,6,,7,,8h[8:3],,2,,3,,4,,5,,
{16}6h[8:3],,,,,,4,,6h[8:3],,,,,,3,,
{16}12,,{24}3,4,2,{16}4,,78,,{24}6,5,7,{16}5,,1/8,,27,,
{16}3b-6[8:1]/6b,,,,7,,7,,8-3[8:1],,,,4h[4:1],,,,
{16}5-8[8:1],,,,1,,1,,2-5[8:1],,,,6h[4:1],,,,
{16}4>8[4:1],,,,8<4[4:1],,,,4>8[4:1],,,,8<8[2:1],,,,
{16}4,,,,,,,,,,,,3,,4,,
{16}6h[8:3]/5,,,,2,,3,,6h[8:3]/4,,,,1,,2,,
{16}6-1[8:1]/3,,6,,2-5[8:1],,2,,8-4[8:1],,8,,1,,2,,
{16}3h[8:3]/4,,,,7,,6,,3h[8:3]/5,,,,8,,7,,
{16}6V47[4:1]/2V83[4:1],,,,,,,,,,,,5,4,5,,
{16}2b-5[8:1]/6b,,,,1,,1-4[8:1],,,,8,,8h[4:1],,,,
{16}7,,8,,1,,2/7-4[8:1],,,,8,,8,,1,,
{16}2-6[8:1],,,,7>4[8:3],,7h[8:3],,,,,,,,,,
{16}6-2[8:1],,,,3<8[8:3],,3h[8:2],,,,,,1,,2,,
{16}7b-4[8:1]/3b,,,,8,,8-5[8:1],,,,1,,1h[4:1],,,,
{16}2,,1,,8,,7/2-5[8:1],,,,1,,1,,8,,
{16}7-3[8:1],,,,2<5[8:3],,2h[8:3],,,,,,,,,,
{16}6-2[8:1],,,,3-5[8:1],,,,7h[4:1],,,,6,7,6,,
{16}58,,7V16[4:1]/4V25[4:1],,,,74,,,,,,2,3,2,,
{16}41,,2-5[8:1]/5-8[8:1],,,,5>2[8:1]/2,,,,5<8[8:1],,,,5q8[4:3]*qq1[4:3],,
{16},,,,,,,,,,,,,,,,
{16}7-3[2:1],,,,,,,,,,,,,,1,1,
{16}1-4[8:1],,8,,1,,6<3[4:1],,,,3,,4,,5,,
{16}5-1[8:1],,6,,5,,8z4[4:1],,,,3,,2,,1,,
{16}1-6[8:1],,8,,1,,5<2[4:1],,,,2,,3,,4,,
{16}4-1[8:1],,7-5[8:1],,4,,7V16[4:1],,,,1,,2,,3,,
{16}3^6[8:1],,2,,1,,8^3[8:1],,,,2,,4-8[8:1],,6,,
{16}6^1[8:1],,5,,4,,3^6[8:1],,,,5,,7-3[8:1],,1,,
{16}1b-5[8:1]*-6[8:1],,2,,,,,,4b-2[8:1]*-8[8:1],,5,,,,,,
{16}7b-3[8:1],,1pp6[4:1],,7,,1b,,,,,,8,1,8,1,
{16}8-5[8:1],,1,,8,,3>6[4:1],,,,6,,5,,4,,
{16}4-8[8:1],,3,,4,,1s5[4:1],,,,6,,7,,8,,
{16}8-3[8:1],,1,,8,,4>7[4:1],,,,7,,6,,5,,
{16}5v6[8:1],,2v3[8:1],,5,,2V84[4:1],,,,8,,7,,6,,
{16}6^3[8:1],,7,,8,,1^6[8:1],,,,7,,5-1[8:1],,3,,
{16}3^8[8:1],,4,,5,,6^3[8:1],,,,4,,2,,8,,
{16}2b,1,2,,38,,7b,8,7,,16,,4b,5,4,,
{16}36,,8,1,27,,2/7^2[8:1],,,,3,4,5,6,7,8,
{16}1,,3,4,,2,1,,3,4,3,5h[4:1],,1,,2,
{16}5,,7,8,,6,5,,7,8,7,1h[4:1],,5,,6,
{16}1,,3,4,,2,1,,3,4,2,5h[4:1],,1,,2,
{16}5,3,7,1h[8:1],,3h[8:1],,5h[8:1],,7h[8:1],,2,6,3,7,,
{16}1b,8,2,1,3h[8:1],,1,2,8,1,7h[8:1],,1,8,2,2,
{16}8,1,7,8,6h[8:1],,8,7,1,8,2h[8:1],,8,1,7,7,
{16}2,1,8,7,2,1,8,7,2,1,8,7,2,1,8,7,
{16}2b,4h[8:1],,7b,5h[8:1],,1b,3h[8:1],,8b,6h[8:1],,1-5[4:3],1,1,1,
{16},,,,,,,,,,,,,,,,
{16},,,,,,,,,,,,,,,,
{16},,,,,,,,,,,,,,,,
{16},,,,,,,,,,,,,,,,
{16},,,,,,,,,,,,,,,,
{16},,,,,,,,,,,,,,,,
{16},,,,,,,,,,,,,,,,
{16}3h[8:1]/4h[8:1],,,3h[8:1]/4h[8:1],,,34,,5h[8:1]/7h[8:1],,,5h[8:1]/7h[8:1],,,57,,
{16}3h[8:1]/8h[8:1],,,3h[8:1]/8h[8:1],,,38,,2bv4[8:1]/6bv8[8:1],,,,,,,,
{16}1-4[8:1],,8,,1,,1-6[8:1],,2,,1,,3,,5,,
{16}5-1[8:1],,6,,5,,4^7[8:1],,3,,4,,2,,8,,
{16}8-3[8:1],,7,,8,,8-5[8:1],,1,,8,,2,,4,,
{16}4-7[8:1],,7-4[8:1],,4-2[8:1]*-8[8:1],,8V26[4:1],,,,,,,,,,
{16}8-5[8:1],,1,,8,,8-3[8:1],,7,,8,,6,,4,,
{16}4-8[8:1],,3,,4,,5^2[8:1],,6,,5,,7,,1,,
{16}7b,8,7,,61,,2b,1,2,,83,,5b,4,5,,
{16}63,,1,8,72,,7/2^7[8:1],,,,6,5,4,3,2,1,
{16}8,,,,,,,,,,,,,,,,
{16},,,,,,,,,,,,,,,,
{16},,,,,,,,,,,,,,,,
{16},,,,,,,,,,,,,,,,
{16},,,,,,,,,,,,,,,,
{16},,,,,,,,,,,,,,,,
{16},,,,,,,,,,,,,,,,
{16},,,,,,,,,,,,,,,,
{16},,,,,,,,,,,,,,,,
{16},,,,,,,,,,,,,,,,
{16},,,,,,,,,,,,,,,,
{16},,,,,,,,,,,,,,,,
&inote_5=(160)
{1},
{16}2,,3,,4,,5,,,,7h[8:7],,,,8<2[8:5],,
{16},,,,,,,,,,,,,,,,
{16}7,,6,,5,,4,,,,2h[8:7],,,,1qq6[8:5],,
{16},,,,,,,,,,,,,,,,
{16}4pp8[1:1]`3,,,,,,,,,,,,,,,,
{16}1,,,,,,2,,,,,,3,,,,
{16}5-1[2:1]`6,,,,,,,,,,,,,,,,
{16}78,,{24}7,5,6,{16}5,,12,,{24}2,4,3,{16}4,,18,,27,,
{16}3bV51[4:1]/6b,,5,,6,,7h[4:1],,,,,,78,,,,
{16}6V48[4:1]/3,,4,,3,,2h[4:1],,,,,,21,,,,
{16}2^4[8:1],,2,,4,,,,6^8[8:1],,6,,8,,,,
{16}1-6[8:1],,2,,3,,4-1[8:1],,5,,6,,7,,,,
{16}6h[8:3]/5,,,,2,,3,,6h[8:3]/4,,,,1,,2,,
{16}6-1[8:1]/3,,6,,2-5[8:1],,2,,8-4[8:1],,8,,1,,2,,
{16}3h[8:3]/4,,,,7,,6,,3h[8:3]/5,,,,8,,7,,
{16}6V47[4:1]/2V83[4:1],,,,,,,,,,,,5,4,5,,
{16}2b-5[8:1]/6b,,,,1,,1v6[8:1],,,,8,,8h[4:1],,,,
{16}7,,8,,1,,2/7-3[8:1],,,,8,,8,,1,,
{16}2q6[8:1],,,,7>4[8:3],,7h[8:3],,,,,,,,,,
{16}7^4[8:1],,,,3q8[4:1],,3h[8:2],,,,,,1,,2,,
{16}7b-4[8:1]/3b,,,,8,,8v3[8:1],,,,1,,1h[4:1],,,,
{16}2,,1,,8,,7/2-6[8:1],,,,1,,1,,8,,
{16}7p3[8:1],,,,2<5[8:3],,2h[8:3],,,,,,,,,,
{16}6-1[8:1],,6,,2-5[8:1],,2,,,,,,7,8,7,,
{16}1/6pp5[8:3],,6,,,,3,,3,,,,2,1,2,,
{16}3qq4[8:3]/8,,3,,,,6,,6,,,,5,4,5,,
{16}3bpp1[2:1]/6bqq1[2:1],,,,,,,,,,,,,,,,
{16}7-3[2:1],,,,,,,,,,,,,,1,1,
{16}1-4[8:1],,8,,1,,6<3[4:1],,,,3,,4,,5,,
{16}5-1[8:1],,6,,5,,8z4[4:1],,,,3,,2,,1,,
{16}1-6[8:1],,8,,1,,5<2[4:1],,,,2,,3,,4,,
{16}4^1[8:1],,7qq8[4:1],,4,,7,,,,1,,2,,3,,
{16}3^6[8:1],,5,,3,,7V15[16:3],,,,5,,4,,3,,
{16}3^8[8:1],,5,,3,,6pp7[16:3],,,,4,,3,,2,,
{16}1b-5[8:1]*-6[8:1],,2,,,,,,4b-2[8:1]*-8[8:1],,5,,,,,,
{16}7b-3[8:1],,1pp1[4:1],,7,,1b,,,,,,8,1,8,1,
{16}8-5[8:1],,1,,8,,3>6[4:1],,,,6,,5,,4,,
{16}4-8[8:1],,3,,4,,1s5[4:1],,,,6,,7,,8,,
{16}8-3[8:1],,1,,8,,4>7[4:1],,,,7,,6,,5,,
{16}5^8[8:1],,1p2[16:3],,5,,1,,,,8,,7,,6,,
{16}6^3[8:1],,4,,6,,2V84[16:3],,,,4,,5,,6,,
{16}6^1[8:1],,4,,6,,3qq2[16:3],,,,5,,6,,7,,
{16}2b,1,2,,38,,7b,8,7,,16,,4b,5,4,,
{16}36,,8,1,27,,2/7h[4:1],,,,4,5,3,6,2,7,
{16}18,,3,4,,2,1,,3,4,3,5h[4:1],,7,,1,
{16}1,,6,5,,7,8,,6,5,6,4h[4:1],,2,,8,
{16}8,,3,4,,2,1,,3,4,3,5h[4:1],,7,,2,
{16}8,4,6,1h[8:1],,3h[8:1],,5h[8:1],,7h[8:1],,2,6,3,7,,
{16}1b,8,2,1,3h[8:1],,1,2,8,1,7h[8:1],,1,8,2,2,
{16}8,1,7,8,6h[8:1],,8,7,1,8,2h[8:1],,8,1,7,7,
{16}2,1,8,7,2,1,8,7,2,1,8,7,2,1,8,7,
{16}2b,4h[8:1],,7b,5h[8:1],,1b,3h[8:1],,8b,6h[8:1],,1-5[8:1],1,1,1,
{16}1qq4[2:1],,,,,,,,,,,,,,8,8,
{16}8^5[8:1],,12,,3q7[8:1]/8,,3h[4:1],,,,,,3,,4,,
{16}5-2[8:1]/6,,4,,5/7v8[8:1],,8^5[8:1],,,,3,,2,,1,,
{16}8^3[8:1],,16,,8/7p8[16:3],,7h[4:1],,,,,,7,,6,,
{16}5V74[16:3],,3qq7[8:3],,5,,3,,,,4,,5,,6,,
{16}6^3[8:1],,4,,6,,1-5[8:1],,,,{24}5,6,7,{16}8,,8,,
{16}3^8[8:1],,1,,3,,4q1[16:3],,,,{24}1,2,3,{16}4,,4,,
{16}8b-4[8:1]*-3[8:1],,7,,,,,,5b-7[8:1]*-1[8:1],,4,,,,,,
{16}2b-6[8:1],,8qq8[4:1],,2,,8b,,,,,,1,8,1,8,
{16}1^4[8:1],,87,,6p2[8:1]/1,,6h[4:1],,,,,,6,,5,,
{16}4-7[8:1]/3,,5,,4/2v1[8:1],,1^4[8:1],,,,6,,7,,8,,
{16}1^6[8:1],,83,,1/2q1[16:3],,2h[4:1],,,,,,2,,3,,
{16}4V25[16:3],,7q8[4:1],,4,,7,,,,5,,4,,3,,
{16}3^6[8:1],,5,,3,,8-4[8:1],,,,{24}4,3,2,{16}1,,1,,
{16}6^1[8:1],,8,,6,,5p8[16:3],,,,{24}8,7,6,{16}5,,5,,
{16}7b,8,7,,61,,2b,1,2,,83,,5b,4,5,,
{16}63,,1,8,72,,7/2h[4:1],,,,5,4,6,3,7,2,
{16}1/8-4[8:1],,,,7,,6-2[8:1],,,,5,,4-8[8:1],,,,
{16}1-6[8:1],,,,3,,4-1[8:1],,,,8,,7-4[8:1],,,,
{16}1-5[8:1],,,,2,,3-7[8:1],,,,4,,5-1[8:1],,,,
{16}8^3[8:1],,,,6,,5^8[8:1],,,,1,,2,,3,,
{16}8-4[8:1]/4,,,,28,,1-5[8:1],,,,17,,8h[4:1],,,,
{16}7,,8,,1,,2/7^2[8:1],,,,5,,4,,3,,
{16}2h[8:3]/4b,,,1,,,8,,7h[8:3]/5b,,,8,,,1,,
{16}2h[8:1]/4b,,,5/7h[8:1],,,18,,1b/8b^5[8:1],,,,{24}4,3,2,{16}1,,
{16}8b,4,8,5,8,6,8,4,8,5,8,6,1,5,1,6,
{16}2b,7,2,8,2,1,3b,7,3,8,3,1,4b,8,4,1,
{16}3b,1,3,8,3,7,2b,8,2,7,2,6,1,5,8,4,
{16}7,8,1,2,8,7,6,5,4/8<4[4:1],,,,84,3,2,1,
{16}8b>3[8:1],,7,,6,,5b-1[8:1],,,,8,,2b<7[8:1],,3,,
{16}4b-8[8:1],,5,,6,,7b-2[8:1],,,,1,,3b,,4,,
{16}8b<5[8:1],,5,,3,,8b>3[8:1],,3,,5,,8b<5[8:1],,5,,
{16}3,,8b-4[8:1],,3,,5,,7,,1b>4[8:1]/5b<8[8:1],,3,,1b/5b,,
{16},,,,,,,,,,,,,,,,
{16},,,,,,,,,,,,,,,,
{16},,,,,,,,,,,,,,,,E
&inote_6=(160)
{1},
{16}2,,3,,4,,5,,,,7h[8:7],,,,8<2[8:5],,
{16},,,,,,,,,,,,,,,,
{16}7,,6,,5,,4,,,,2h[8:7],,,,1qq6[8:5],,
{16},,,,,,,,,,,,,,,,
{16}4pp8[1:1]`3,,,,,,,,,,,,,,,,
{16}1,,,,,,2,,,,,,3,,,,
{16}5-1[2:1]`6,,,,,,,,,,,,,,,,
{16}78,,{24}7,5,6,{16}5,,12,,{24}2,4,3,{16}4,,18,,27,,
{16}3bV51[4:1]/6b,,5,,6,,7h[4:1],,,,,,78,,,,
{16}6V48[4:1]/3,,4,,3,,2h[4:1],,,,,,21,,,,
{16}2^4[8:1],,2,,4,,,,6^8[8:1],,6,,8,,,,
{16}1-6[8:1],,2,,3,,4-1[8:1],,5,,6,,7,,,,
{16}6h[8:3]/5,,,,2,,3,,6h[8:3]/4,,,,1,,2,,
{16}6-1[8:1]/3,,6,,2-5[8:1],,2,,8-4[8:1],,8,,1,,2,,
{16}3h[8:3]/4,,,,7,,6,,3h[8:3]/5,,,,8,,7,,
{16}6V47[4:1]/2V83[4:1],,,,,,,,,,,,5,4,5,,
{16}2b-5[8:1]/6b,,,,1,,1v6[8:1],,,,8,,8h[4:1],,,,
{16}7,,8,,1,,2/7-3[8:1],,,,8,,8,,1,,
{16}2q6[8:1],,,,7>4[8:3],,7h[8:3],,,,,,,,,,
{16}7^4[8:1],,,,3q8[4:1],,3h[8:2],,,,,,1,,2,,
{16}7b-4[8:1]/3b,,,,8,,8v3[8:1],,,,1,,1h[4:1],,,,
{16}2,,1,,8,,7/2-6[8:1],,,,1,,1,,8,,
{16}7p3[8:1],,,,2<5[8:3],,2h[8:3],,,,,,,,,,
{16}6-1[8:1],,6,,2-5[8:1],,2,,,,,,7,8,7,,
{16}1/6pp5[8:3],,6,,,,3,,3,,,,2,1,2,,
{16}3qq4[8:3]/8,,3,,,,6,,6,,,,5,4,5,,
{16}3bpp1[2:1]/6bqq1[2:1],,,,,,,,,,,,,,,,
{16}7-3[2:1],,,,,,,,,,,,,,1,1,
{16}1-4[8:1],,8,,1,,6<3[4:1],,,,3,,4,,5,,
{16}5-1[8:1],,6,,5,,8z4[4:1],,,,3,,2,,1,,
{16}1-6[8:1],,8,,1,,5<2[4:1],,,,2,,3,,4,,
{16}4^1[8:1],,7qq8[4:1],,4,,7,,,,1,,2,,3,,
{16}3^6[8:1],,5,,3,,7V15[16:3],,,,5,,4,,3,,
{16}3^8[8:1],,5,,3,,6pp7[16:3],,,,4,,3,,2,,
{16}1b-5[8:1]*-6[8:1],,2,,,,,,4b-2[8:1]*-8[8:1],,5,,,,,,
{16}7b-3[8:1],,1pp1[4:1],,7,,1b,,,,,,8,1,8,1,
{16}8-5[8:1],,1,,8,,3>6[4:1],,,,6,,5,,4,,
{16}4-8[8:1],,3,,4,,1s5[4:1],,,,6,,7,,8,,
{16}8-3[8:1],,1,,8,,4>7[4:1],,,,7,,6,,5,,
{16}5^8[8:1],,1p2[16:3],,5,,1,,,,8,,7,,6,,
{16}6^3[8:1],,4,,6,,2V84[16:3],,,,4,,5,,6,,
{16}6^1[8:1],,4,,6,,3qq2[16:3],,,,5,,6,,7,,
{16}2b,1,2,,38,,7b,8,7,,16,,4b,5,4,,
{16}36,,8,1,27,,2/7h[4:1],,,,4,5,3,6,2,7,
{16}18,,3,4,,2,1,,3,4,3,5h[4:1],,2,,1,
{16}1,,6,5,,7,8,,6,5,6,4h[4:1],,5,,8,
{16}8,,3,4,,2,1,,3,4,3,5h[4:1],,2,,2,
{16}8,4,6,1h[8:1],,3h[8:1],,5h[8:1],,7h[8:1],,2,6,3,7,,
{16}1b,8,2,1,3h[8:1],,1,2,8,1,7h[8:1],,1,8,2,2,
{16}8,1,7,8,6h[8:1],,8,7,1,8,2h[8:1],,8,1,7,7,
{16}2,1,8,7,2,1,8,7,2,1,8,7,2,1,8,7,
{16}2b,4h[8:1],,7b,5h[8:1],,1b,3h[8:1],,8b,6h[8:1],,1-5[4:3],1,1,1,
{16},,,,,,,,,,,,,,8,8,
{16}8^5[8:1],,12,,3q7[8:1]/8,,3h[4:1],,,,,,3,,4,,
{16}5-2[8:1]/6,,4,,5/7v8[8:1],,8^5[8:1],,,,3,,2,,1,,
{16}8^3[8:1],,16,,8/7p8[16:3],,7h[4:1],,,,,,7,,6,,
{16}5V74[16:3],,3qq7[8:3],,5,,3,,,,4,,5,,6,,
{16}6^3[8:1],,4,,6,,1-5[8:1],,,,{24}5,6,7,{16}8,,8,,
{16}3^8[8:1],,1,,3,,4q1[16:3],,,,{24}1,2,3,{16}4,,4,,
{16}8b-4[8:1]*-3[8:1],,7,,,,,,5b-7[8:1]*-1[8:1],,4,,,,,,
{16}2b-6[8:1],,8qq8[4:1],,2,,8b,,,,,,1,8,1,8,
{16}1^4[8:1],,87,,6p2[8:1]/1,,6h[4:1],,,,,,6,,5,,
{16}4-7[8:1]/3,,5,,4/2v1[8:1],,1^4[8:1],,,,6,,7,,8,,
{16}1^6[8:1],,83,,1/2q1[16:3],,2h[4:1],,,,,,2,,3,,
{16}4V25[16:3],,7q8[4:1],,4,,7,,,,5,,4,,3,,
{16}3^6[8:1],,5,,3,,8-4[8:1],,,,{24}4,3,2,{16}1,,1,,
{16}6^1[8:1],,8,,6,,5p8[16:3],,,,{24}8,7,6,{16}5,,5,,
{16}7b,8,7,,61,,2b,1,2,,83,,5b,4,5,,
{16}63,,1,8,72,,7/2h[4:1],,,,5,4,6,3,7,2,
{16}1/8-4[8:1],,,,7,,6-2[8:1],,,,5,,4-8[8:1],,,,
{16}1-6[8:1],,,,3,,4-1[8:1],,,,8,,7-4[8:1],,,,
{16}1-5[8:1],,,,2,,3-7[8:1],,,,4,,5-1[8:1],,,,
{16}8^3[8:1],,,,6,,5^8[8:1],,,,1,,2,,3,,
{16}8-4[8:1]/4,,,,28,,1-5[8:1],,,,17,,8h[4:1],,,,
{16}7,,8,,1,,2/7^2[8:1],,,,5,,4,,3,,
{16}2h[8:3]/4b,,,1,,,8,,7h[8:3]/5b,,,8,,,1,,
{16}2h[8:1]/4b,,,5/7h[8:1],,,18,,1b/8b^5[8:1],,,,{24}4,3,2,{16}1,,
{16}8b,7,8,6,1,7,8,7,1,6,8,7,8,6,5,6,
{16}3b,8,4,7,5,6,2b,7,3,6,4,5,1b,6,2,5,
{16}8b,7,1,6,2,5,1b,8,1,8,1,8,1,8,1,8,
{16}6,7,5,6,4,5,3,4,2,3,1,2,{32}8,7,6,5,4,3,2,1,
{16}8b-3[8:1],,7,,6,,5-1[8:1],,,,8,,2-7[8:1],,3,,
{16}4b-8[8:1],,5,,6,,7-2[8:1],,,,1,,3,,4,,
{16}8b<5[8:1],,5,,3,,8b>3[8:1],,3,,5,,8b<5[8:1],,5,,
{16}3,,8b-4[8:1],,3,,5,,7,,1b>4[8:1]/5b<8[8:1],,3,,1b/5b,,
{16},,,,,,,,,,,,,,,,
{16},,,,,,,,,,,,,,,,
{16},,,,,,,,,,,,,,,,E
