&title=Savage
&artist=神保 伸太郎
&first=0.485
&des=别人都是xmmcg你写这个?
&lv_5=14
&inote_5=
(156){4},{1},{24}1,
2,3,4,5,6,7,8,1,2,3,4,5,6,7,8,1,2,
3,4,5,6,7,8,1,2,3,4,,6,7,8,1,2,3,4,5,6,,8,1,2,
3,4,{12}5,{24}7,8,1,2,,4,5,,7,8,,2,3,4,,6,7,,,2,
{12}3,5,7,1,{24},{8}4,7,2h[4:1],,,4,
{16}5,3,,7,{8}2,{16}6,5,{8}7,3h[8:1],{16}5,4,
{8}6,{16}3,5,,4,{8}7,{16}3,4,{8}2,{16}6,5,{8}7,
2,{16}5,3,,7,{8}2,{16}6,5,{8}7,3h[8:1],{16}5,4,
{8}6,{16}3,5,,4,{8}7,{16}3,4,{8}2,{16}6,5,{8}7,
2,{16}5,3,,7,{8}2,{16}6,5,{8}7,3h[8:1],{16}5,4,
{8}6,{16}3,5,,4,{8}7,{16}3,4,{8}2,{16}6,5,{8}7,
2,{16}5,3,,7,{8}2,{16}6,5,{8}7,3h[8:1],{16}5,4,
{8}6,{16}3,5,,4,{8}7,{16}3,4,2,5,3,4,{8}1,
{16}2b,8,2,8,2,8,2,8,3b,7,3,7,3,7,3,7,
4b,6,4,6,3,5,{8}3,{16}4b/2b,,,6b/5b,,,{8}2b/7b,
{16}3b,5,3,5,3,5,3,5,4b,6,4,6,4,6,4,6,
3b,7,3,7,4,6,{8}4,{16}2b/7b,,,3b/5b,,,{8}2b/1b,
8b/3b,{16}6,5,{8}6,7,2b/5b,{16}3,4,{8}3,2,
{16}7b/4b,6,5,4,2,1,8,7,3b,,,4b/1b,,,{8}5b/3b,
6bh[8:1],{16}8,7,2,4,3,6,1b,1,8,2,7,4,6,6,
3b,5,3,4,3,2,3,1,3b,,,8b/4b,,,{8}2b/6b,
{4}8h[8:1]/1h[8:1],6h[8:1]/5h[8:1],4h[8:1]/2h[8:1],4h[8:1]/7h[8:1],
3h[8:1]/5h[8:1],7h[8:1]/8h[8:1],3h[8:1]/1h[8:1],8h[8:1]/7h[8:1],
5h[8:1]/3h[8:1],2h[8:1]/1h[8:1],8h[8:1]/6h[8:1],8h[8:1]/3h[8:1],
7h[8:1]/1h[8:1],4h[8:1]/3h[8:1],7h[8:1]/5h[8:1],4h[8:1]/3h[8:1],
{32}1b,2,3,4,7,6,5,4,1,2,3,4,7,6,5,4,{8}1b,{16}3,5,,4,{24}8,7,6,
{8}5b/1b,{16}3,4,2,4,3,5,{8}3h[8:1],{16}8,1,{8}7,5,
{24}6b,5,6,5,6,5,{8}6,4,7bh[8:1],{16}3,5,{8}2bh[8:1],{16}6,5,
{8}8bh[8:1],{24}4,6,3,{8}5b>7b[4:1],{24}4,7,3,{4}5b,{24}4,3,2,1,,,{8}8b/2b-5b[8:1],
{16}5,4,,7,{8}7,8b-4b[8:1],{16}5,6,,3,{8}3,
2b-5b[8:1],{16}4,3,,6,{8}6,7b/4b,{16}3,4,{8}2,5,
4b/7b-4b[8:1],{16}3,3,,2,{8}2,1b-5b[8:1],{16}5,5,,6,{8}6,
7b-4b[8:1],{16}4,4,,3,{8}3,2b/5b,{24}6,7,8,1,2,3,4,,,{4}2b/1b,
{8}6h[4:1],5,3h[4:1],4,7h[4:1],6,
4h[4:1],3,8h[4:1],1,{48}2b,3,4,5,,,{8}8,{48}1b,2,3,4,,,{8}6,
{4}8b/7b,{8}3h[4:1],4,6h[4:1],5,2h[4:1],3,
5h[4:1],6,1h[4:1],8,{48}7b,6,5,4,,,{8}1,{48}8b,7,6,5,,,{8}3,
{4}2b/1b,{12}8,5,6,3,5,4,7,1,4,
2,3,4,7,6,5,{24}1b,8,7,6,5,4,1b,8,7,6,5,4,
{4}1b,{12}1,4,3,6,4,5,2,8,5,
7,6,5,2,3,4,{24}6,5,6,5,6,5,7,4,7,4,7,4,
{10}8s4<5-2[4:21],A1,A2,A3,A4,A5,A6,A7,A8,A1,
A2,A3,A4,A5,A6,A7,A8,A1,A2,A3,
{1}A4,
,,,,{4},,,{16},,,E8,
{24}E6,B5,B4,E4,{1},{4},,,{16},,,{48},{8}1-5-8-3[4:5],
,,,,,,,,,,,,,,7,
{16}4,6,,2,{8}7,{16}3,4,{8}2,6h[8:1],{16}4,5,
{8}3,{16}6,4,,5,{8}2,{16}6,5,{8}7,{16}3,4,{8}2,
7,{16}4,6,,2,{8}7,{16}3,4,{8}2,6h[8:1],{16}4,5,
{8}3,{16}6,4,,5,{8}2,{16}6,5,{8}7,{16}3,4,{8}2,
7,{16}4,6,,2,{8}7,{16}3,4,{8}2,6h[8:1],{16}4,5,
{8}3,{16}6,4,,5,{8}2,{16}6,5,{8}7,{16}3,4,{8}2,
7,{16}4,6,,2,{8}7,{16}3,4,{8}2,6h[8:1],{16}4,5,
{8}3,{16}6,4,,5,{8}2,{16}6,5,{8}7,{32}6,5,4,3,2,1,8,7,
{4}2b/6b,{16}3,5,3,5,2,1,2,1,3,4,3,4,
1,8,1,8,5,6,5,6,4b/7b,,,5b/2b,,,{8}6b/4b,
{16}3,7,3,7,4,5,4,5,2,6,2,6,3,4,3,4,
1,8,1,8,4,5,4,5,6b/3b,,,8b/1b,,,{8}5b/6b,
4b/2b,{16}3,4,{24}2,5,2,5,,,{8}7b/4b,{16}6,5,{24}7,4,7,4,,,{8}5b/2b,
{16}3,4,{8}1,2,{16}7b,5,7,3b,5,3,{8}8b,
{24}1b,2,3,7,6,5,2,3,4,8,7,6,{8}1b,{16}6,5,7,3,4,2,
8b,1,5,4,7bpp4b[2:1],2,5,4,{2}7b,
{4}1,{8}A2h[16:1],A3h[16:1],A2h[16:1],A3h[16:1],D2h[16:1],D4h[16:1],
D2h[16:1],D4h[16:1],A1h[16:1],A4h[16:1],A1h[16:1],A4h[16:1],D1h[16:1],D5h[16:1],
D1h[16:1],D5h[16:1],A8h[16:1],A5h[16:1],A8h[16:1],A5h[16:1],D8h[16:1],D6h[16:1],
D8h[16:1],D6h[16:1],A7h[16:1],A6h[16:1],A7h[16:1],A6h[16:1],{4}D7h[8:1],
{8}8b,{16}2,1,2,1,{8}2,8h[8:1],{24}5b,4,3,{8}2h[8:1],{24}4b,3,2,
{8}1h[8:1],{16}3,4,,8,{8}7,6b/1b-5b[8:1],{16}8,8,,7,{8}7,
{16}6,5,7,3,4,2,5,4,6,1,8,2,7,5,{8}6,
4b-8b[8:1],3,7b-5b[8:1],6,1b>4b[8:1],2,{24}8b,7,6,5,,,{8}1b/8b,
{16}2,1,,2,{8}1,6b/7b,{16}7,6,,7,{8}6,
4b/3b,{16}4,3,,4,3,5,{8}3h[8:1],{16}6,4h[8:1],,7,{8}5,
{24}6,7,8,1,2,3,6,7,8,1,2,3,{16}1b-5b[16:1],,,7b-4b[16:1],,,{8}3b-6b[16:1],
{12}2b,2,2,2,{24},{8}1h[8:1],8,{16}2,4,,7,{8}5,
{4}2b/1b,{8}6h[4:1],5,3h[4:1],4,7h[4:1],6,
4h[4:1],3,8h[4:1],1,{48}2b,3,4,5,,,{8}8,{48}1b,2,3,4,,,{8}6,
{4}8b/7b,{8}3h[4:1],4,6h[4:1],5,2h[4:1],3,
5h[4:1],6,1h[4:1],8,{48}7b,6,5,4,,,{8}1,{48}8b,7,6,5,,,{8}3,
{4}2b/1b,{8}6h[4:1],5,2h[4:1],3,5h[4:1],6,
1h[4:1],8,4h[4:1],3,{32}1b,8,7,6,5,4,3,2,6b,7,8,1,2,3,4,5,
{4}2b/6b,{8}3h[4:1],4,7h[4:1],6,4h[4:1],3,
8h[4:1],1,5h[4:1],6,{32}8b,1,2,3,4,5,6,7,3b,2,1,8,7,6,5,4,
{4}7b/3b,{8}6h[4:1],5,3h[4:1],4,7h[4:1],6,
4h[4:1],3,8h[4:1],1,{48}2b,3,4,5,,,{8}8,{48}1b,2,3,4,,,{8}6,
{48}8b/7b,1,2,3,,,,,,,,,{8}3h[4:1],4,6h[4:1],5,2h[4:1],3,
5h[4:1],6,1h[4:1],8,{48}7b,6,5,4,,,{8}1,{48}8b,7,6,5,,,{8}3,
{48}1b/2b,8,7,6,,,,,,,,,{12}6,6,6,3,3,3,8,8,8,
5,3,4,6,5,7,{32}1b,2,3,4,7,6,5,4,1b,2,3,4,7,6,5,4,
{4}1b,{12}3,3,3,6,6,6,1,1,1,
4,6,5,3,4,2,{32}8b,7,6,5,2,3,4,5,8b,7,6,5,4,3,2,1,
8b,7b/2b,6b/3b,4b/5b,
E
