&title=dear, lost blue (feat. DJ Raisei & Pvin Connect Reason)
&artist=天乃おつげ,DJ Raisei,Pvin Connect Reason
&first=-0.23
&lv_5=14.7
&des_5=这什么臭歌底噪给我拉满了根本听不清
&inote_5=
(202){4},,{2}E4h[4:7]/B4h[4:7]/B3h[4:7],
,{8}7,7,8,8,
{4}1-5[8:1],1,{8}4x,4,{4}3-8[8:1],
3/7-5[8:1],7,{8}1,1,5,5,
{4}4h[4:1],Cf,{8}3-8[8:1],8-4[8:1],{4}3,
{8}6-1[8:1],3-5[8:1],6,3,,6/4,4/6,3/5,
5v3[8:1]/3v5[8:1],4,{4}3/5,{8}6-1[8:1],1-5[8:1],{4}6,
{8}3-8[8:1],6-4[8:1],3,6,,3/5,5/3,6/4,
6q4[16:3]/4p6[16:3],5,{4}6/4,E8h[2:3]/B7h[2:3]/B8h[2:3],B4/E5,
B3/B4,{8}B3/E3,4x,4,3,3,2,
{4}2-5[8:1],2,B1h[4:7]/E2h[4:7]/B2h[4:7],B5/E5,
B6/B5,{8}B6/E7,5x,5,6,6,7,
{4}7-4[8:1],7,{8}3-1[8:1],1-5[8:1],3,8,
{4}8w4[8:1],8,{8}2,2,6,6,
{4}3-7[8:1]/7-3[8:1],3/7,{8}6-8[8:1],8-4[8:1],6,1,
{4}1w5[8:1],1,{8}Ch[4:3],3,3,4,
{16}4,B3,B2,E2,{8}B6/E6,E4,{6}4h[12:1]/5h[12:1],6h[12:1]/7h[12:1],2h[12:1]/3h[12:1],
{8}4-1[8:1],1-6[8:1],4,7-3[8:1],,7,{24}2x-6[12:1],4x,2x,4x,2x,4x,
{8}2bx,A5/E6/D6/B5,E8/B8/A8/D8/E1,B2/A2/E3/D3/B3/A3,{6}1h[12:1]/8h[12:1],6h[12:1]/5h[12:1],4h[12:1]/3h[12:1],
{8}5-8[8:1],8-3[8:1],5,2-6[8:1],,2,{4}5bh[8:1],
{6}4h[12:1]/6h[12:1],7h[12:1]/3h[12:1],2h[12:1]/8h[12:1],{24}1-5[8:1],{12},{24}5>2[8:1],{12},{4}1,
{8}7-4[8:1],4V68[4:1],7,3h[16:3],,3h[12:1],{24}5x-1[12:1],3x,5x,3x,5x,3x,
{8}5bx,E3/B2/A2/D3/E2,B8/A8/E8/D8/B7/A7,A5/D5/B5/E5/B4/A4,7-3[8:1],3<6[8:1],{4}7,
{8}1-4[8:1],4V28[4:1],1,5h[16:3],,5h[12:1],{16}3,5,{8}4,
{16}3,2,{8}4,{16}6,7,{8}5,4V28[4:1],7,{24}4/D4,A3,D3,A2,D2,A1,
{8}D1/5b-2[8:1],2x-6[8:1],5,1h[16:3],,1h[16:1],{24}1x-5[12:1],8x,1x,8x,1x,8x,
{8}1bx,E7/B6/A6/D7/E6,B4/A4/E4/D4/B3/A3,A1/D1/B1/E1/B8/A8,{6}4h[12:1]/5h[12:1],7h[12:1]/8h[12:1],1h[12:1]/2h[12:1],
{8}8-5[8:1],5-2[8:1],8,3-7[8:1],,3,{4}8bh[8:1],
{6}1h[12:1]/7h[12:1],6h[12:1]/2h[12:1],3h[12:1]/5h[12:1],{24}4-8[8:1],{12},{24}8>3[8:1],{12},{4}4,
{8}6-1[8:1],1V75[4:1],6,2h[16:3],,2h[12:1],{24}8x-4[12:1],2x,8x,2x,8x,2x,
{8}8bx,E3/B3/A3/D3/E4,B5/A5/E6/D6/B6/A6,A8/D1/B8/E1/B1/A1,3-8[8:1],8-4[8:1],{4}3,
{8}7<5[8:1],3>1[8:1],7x-3[8:1],3x,{4}7bx,{8}2,2,
6,6,1,1,{4}8/6-3[8:1],6/2,
{6}1-3[12:1],5-8[12:1],4-7[12:1],1-6[12:1]*-4[12:1],{12},{4}1x,
{6}8-6[12:1],4-1[12:1],5-2[12:1],8-3[12:1]*-5[12:1],{12},{4}8x,
{6}1-4[12:1],6<8[12:1],5>2[12:1],1-6[12:1]*-4[12:1],{12},{4}1x,
{6}8-5[12:1],3>1[12:1],4<7[12:1],8-3[12:1]*-5[12:1],{12},{4}8x,
{6}2-5[12:1],7-2[12:1],3-6[12:1],1-4[12:1]*q5[8:1],{12},{4}1x,
{6}3-6[12:1],8-3[12:1],4-7[12:1],2-5[12:1]*q6[8:1],{12},{4}2x,
{6}3xh[6:1],6xh[6:1],2xh[6:1],5xh[6:1],{12},{16}4,5,4,5,
{4}4-8[8:1],4/5,{2}6xV82V46<7V13V57>6[8:29],
{1},,,{2},{4}3-8[8:1],
{8}3,4,
{4}5-1[8:1],{8}5,4,{4}3>8[8:1],{8}3,5,
{4}6<1[8:1],{8}6,3,{4}2-5[8:1],{8}2,1,
{4}8-4[8:1],{8}8,1,{4}2>5[8:1],{8}2,8,
{4}7<4[8:1],{8}7,2,E4h[4:7]/B4h[4:7]/B3h[4:7],{4},{8}E6/B6,
{4}E7,B7,{8}7x,7,8,8,
{4}1-5[8:1],1,{2}E6h[4:7]/B5h[4:7]/B6h[4:7],
{4}A4/E4,E4/D4,{8}2x,2,1,1,
{4}8-4[8:1],8,{8}E2h[4:7]/B1h[4:7]/B2h[4:7],{4},{8}E8/B7,
{4}E7,B6,{8}6x,6,5,5,
{4}4-8[8:1],4,{8}3x/E8h[4:3]/B7h[4:3]/B8h[4:3],3,4,4,
{4}5>2[8:1],5x,{8},6-2[8:1],2-6[8:1],6,
{4},{16}4s8s4[2:1],5,4,5,{2}4,
{8},6<1[8:1],,6,{24}2,3,4,5,6,7,8,1h[24:5],{6},{4}8xV64[8:1],
3-7[12:1]/8>3[8:1],3/8x,6x-2[8:1],
{8},4x,{16}3,1,3,1,{8}3,2b/8b,,{16}2/8,8/2,
{8}8x/2x,{24}1b,2,3,4,5,6,7,8,1,{4}2/5h[4:1],4-8[8:1],
6x,{12}6-1[12:1],,2-5[12:1],{4},{8},{24}8x/4x,7x/3x,6x/2x,
{4}1x/5xh[8:1],{16}2,8,2,8,{24}1,7,1,7,1,7,1,E1/E2,B8/B2,B7/B3,E7/E4,A6/A4,
,5xh[24:5],{6},{8}4,3/6,,{24}4,5,4,{8}5s1s5[2:1],{16}5,3,
5,3,{8}3bx,{4},{8}3x-6[8:1],6x-1[8:1],{4}3x,
{8}8-6[8:1],2-4[8:1],8-5[8:1],2-5[8:1],8-2[8:1],2-6b[8:1],{4}8,
{8}4b-7[8:1]*-1[8:1],4,{4}4,{8}3h[8:1],4h[8:1],5h[8:1],6h[8:1],
1-3[8:1],7-5[8:1],1-4[8:1],7-4[8:1],1-7b[8:1],7-3[8:1],1,{16}6,5,
{8}4b-1[8:1]*-7[8:1],4,{4}4,{8}5h[8:1],4h[8:1],3h[8:1],2h[8:1],
8-6[8:1],2-4[8:1],8-5[8:1],2-5[8:1],8>2[8:1],2-6b[8:1],{4}8,
{8}4b-7[8:1]*-1[8:1],4,{4}4,{8}3h[8:1],4h[8:1],5h[8:1],6h[8:1],
1-3[8:1],7-5[8:1],1-4[8:1],7-4[8:1],1<7[8:1],7-3b[8:1],{4}1,
{8}4b-8[8:1]*-8[8:1],4,{4}4,{24}7bx/1bx,2/6,5/3,4,{16},,,{48},{8}8<5[4:1],
{4}8,4qq4pp4[4:5],{1},{2},{1}Ch[2:1]/6<3[1:1],
{2},5qq5pp5[4:7],
{1},{2},2<5>4[4:3],
{4},,,6xh[4:1]/Ch[4:3],
,{16}A8,E8,B7,E7,{2}E6h[4:7]/B5h[4:7]/B6h[4:7],
,{8}3,3,2,2,
{4}1>4[8:1],1x,{2}E4h[4:7]/B4h[4:7]/B3h[4:7],
,{8}6,6,7,7,
{4}8<5[8:1],8x,{2}E8h[4:7]/B8h[4:7]/B7h[4:7],
,{8}2,2,3,3,
{4}4>1[8:1],4x,{8}6x/E2h[4:3]/B2h[4:3]/B1h[4:3],6,5,5,
{4}4<7[8:1],4x,{8},1-5[8:1],8,1,
{16}8,7,{8}6-2[8:1],4,6,{4}1xw5[8:1],A1f,
{8}3-7[8:1],7-3b[8:1],{4}3>6[4:1],{6}5h[12:1],5h[12:1],5h[12:1],
{4}5b-7[8:1]*-1[8:1],5-3-8[4:1],8w4[8:1],A8f,
{8}6-2[8:1],2-6b[8:1],{4}6<3[4:1],{6}4h[12:1],4h[12:1],{24},{16}4,5,
{8}4w8[8:1],5/3,{4}4,1xw5[8:1],A1f,
{8}3-7[8:1],7-4b[8:1],{4}4>6[16:5],{6}5h[12:1],5h[12:1],5h[12:1],
{4}5b-7[8:1]*-1[8:1],5-3-8[4:1],8w4[8:1],A8f,
{8}6-2[8:1],2-5b[8:1],{4}5<3[16:5],{6}4h[12:1],4h[12:1],{24},{16}4,5,
{8}4w8[8:1],5/3,{4}4,{16}2/6,3,4,5,{4}6h[8:1]/7h[8:1],
{8}4-8[8:1],8-4b[8:1],{4}4>6[16:5],{6}5h[12:1]/A4f,5h[12:1],5h[12:1],
{4}5w1[8:1],A5f,{8}5-1[8:1],1-5b[8:1],{4}5<3[16:5],
{6}4h[12:1]/A5f,4h[12:1],4h[12:1],{24}4/6,{12},{24}4/2,{12},{8}4/6,{16}7,6,
{8}5w1[8:1],4/6,{4}5,7-3[8:1]/3-7b[8:1],3/7,
{8}4p8[8:1],8p4b[8:1],{4}4>6[16:5],{6}5h[12:1]/A4f,5h[12:1],5h[12:1],
{4}5w1[8:1],A5f,{8}5q1[8:1],1q5b[8:1],{4}5<3[16:5],
{6}4h[12:1]/A5f,4h[12:1],4h[12:1],{24}4/6,{12},{24}4/2,{12},{8}4/6,{16}3,5,
3,5,3,5,{24}3,5,3,5,{12}3,{2}Ch[1:1]/B6h[2:1]/B2h[4:3],
,{8}6-2[8:1],6,7-3[8:1],7,
1-5[8:1],1,2-6[8:1],2,,7,7,3,
3,6,6,3-7[8:1],3,2-6[8:1],2,8-4[8:1],
8,7-3[8:1],{4}7,{8}4,4,6,6,
{4}4-7[8:1]*-1[8:1],4,{8}8-5[8:1],8,2-5[8:1],2,
4qq2[8:1]*pp6[8:1],4x,{4}4x,{8}3/5,3/5,1/3,5/7,
{4}8-4b[8:1],8,{8}3/5,4/6,2/4,3/5,
{4}6/4qq4b[4:5]*pp4b[4:5],4x,
