&title=未来の残滓
&artist=獅子神レオナ
&first=0
&des="May" I help you?
&clock_count=4
&lv_5=13+
&inote_5=(183.00)
{1},
{8}3/4,2,5/6,7,{16}2,1,3,,{8}4/5,7/8,
{16}1,6,3,4,2,7,5,6,{8}4w8[8:1],,,,
{8}2-5[8:1],2,1,,7<4[8:1],7,8,1,
{8}2-7[8:1],6-3[8:1],2,6,,1/5,1/5,,
{8}3-1[8:1],3,4,5,6-8[8:1],1-5[8:1],6,1<2[16:5],
{8},3,3,,1w5[8:1],,,,
{8}3-8[8:1]/7-4[8:1],,3b/7b`Cf,,2/6,2/6,,1/8,
{8}1-4[8:1]/8,,1/5-8[8:1],,5/2-5[8:1]*-6[8:1],,,,
{8}7/8,6,1/2,3,4/7,4/7p3[8:1],,7/8,
{8},2,5/4,1/8,2b/7b,2b/7b,,,
{8}3xq5[8:4],,C,,,,E1,,
{8}3<5v2[8:3],,B6,,,,E8,,
{8}1V35[16:5],,C,,,,E1,,
{8}2-4<5-1[16:7],,B6,,,,B4/B5,,
{8}7-3-6[8:3],,B1/E1,,,,A3/E4,,
{8}5-2-6[8:3],,B1/B8,,,,A5/D5,,
{8}8-4-6[8:3],,A1/D2,,,,A3/D4,6hx[8:4],
{8},,,,{16}1,8,1,8,2b/7b,,,,
{8}3-7[8:1],3,6-2[8:1],6,1,1,8,8,
{8}4,5,3h[8:3],,B3f,,,1,
{8}7-1[8:1],7,2-4[8:1],2,6,6,5x-7[8:1],,
{8}5x-1[8:1],,5x-8[8:1],,5x-2[8:1],,5x,,
{8}6-8[8:1],6,1,1,2pp4[16:3],2,8,8,
{8}7p3[8:1],7,2,2,1q6[8:1]*p4[8:1],,,,
{8}7-4[8:1],7,3,3,2,2,6,6,
{8}4h[8:3]/5h[8:3],,,,{48}E4/B4/B5/E6,B3/B6,C,B2/B7,E2/E8,,{8},2bx/7bx,,
{8}3/4,4,3/4<6[8:2],,B3,,E2,,
{8}7/8V25[16:7],,,,A6/B6,,E1/E8,,
{8}4h[8:3],,5,5h[8:3],,6,6<3[16:7],,
{8}E3,E4,E5,E6,E7,,4x/8x,,
{8}6-1[8:1],,5/6,,2,2,8/2,{16}7,1,
{8}6,4/6,6/4h[8:2],6,6,3/6,2/7,4/5,
{8}1bh[8:7]/8bh[8:7],,,,,,,,
{8}2/7,{16}3,6,3,6,3,,{8}4b-8[8:1]/5b-1[8:1],,,,
{8}2/7<4[8:1],,1-5[8:1]/7,8,1/6V47[16:3],,6/3,3-6-2[8:2],
{8},8,8>3[8:1]*<5[8:1],,8,,4hx[8:1]/1hx[8:1],,
{8}2/3-6[8:1],2,2/3,2,2/3q7[8:1],2,2/3,1>5[8:2],
{8}8,4,6,8-4[8:1],7,2x,2x,,
{8}3v8[8:1]/5v8[8:1],4,5/3,,1/7,6,3/4,2,
{8}1/5,1h[8:1]/5h[8:1],,8xp3[8:1],6hx[8:2],,,1x/2x,
{8},4/5,4/5,6,4/5,2,1/7,1/7p4[8:3],
{8},3,3,,1<6[8:1]*>4[8:1],,1b,,
{8}3/5-8[8:1],,4/5,2-5[8:1],,2/8,7-2[8:1],,
{8}5/7,4pp1>3[16:7],,4/8,,,,7,
{8}6-3[8:1],4-1[8:1],6,4x<7[8:1],,4x/8x>7b[8:3],,Cf,
{8},8,8,,6-1[8:1]/2-5[8:1],,2b/6b,,
{8}4/6,2,3/5,7,{16}1,8,1,,{8}2/7,4,
{8}5/6,7,4/8,4v1[8:1]/8-5[8:1],,4/8,,6/2,
{8}3b/4bh[8:11],,,,,,,,
{8},,,1bw5[8:1],,,,,
{8}7-3[8:1],7,8,1-4[8:1],,2/1,,3h[8:1]/5h[8:1],
{8},4-8[7:1],5,4,,1/6>3[8:1],,2V84[8:2]/6,
{8},5,6,7,8-5[8:1],3>8[8:1],8,3-6[8:1],
{8},1-5[8:1]/3,,1/8,,4/7,3/6,2/5,
{8}1h[8:1]/4h[8:1],,7/8,7/8>3[8:1],,6/8,,4h[8:1]/2h[8:1],
{8},5-1[7:1],4,5,,8/3<6[8:1],,7V15[8:2]/3,
{8},4,3,2,1,2/8,3/7,4-6[8:1]/6-1[8:1],
{8},6/4z8b[16:5],,,,,,,
{8}2x/7x<2[8:4],,,1,1,,8,,
{8}7<2b[8:4],,,1,1,,8,,
{8}4/7,,5/6,5/6,,4/2-5[16:5]*q2[16:7],,,
{8},,,,Ch[8:2],,,,
{8}2x/7x,,4/5,,3/6,3,1/8,8,
{8}2/6,4,4/5,6,3-6[8:1]/7q3[8:1],,3/7,,
{8}4bx/8bx,,3/5,1b/7b,,5/6,3b/8b,,
{8}2b/7b,2b/7b,2b/7b,2bz6[8:2]/7bs3[8:2],,,,,
{8}1b-5[8:25],,,,,,,,
{8},,,,,,,,
{8}B6/B7/E7,,,,,,,B1h[8:4]/B8h[8:4]/E1hf[8:4],
{8},,,,,,,,
{8}2<7[8:7],,,,,,,{24}6xq3[16:9],5x,,
{8},,,,,,,{16}1,8,
{8}2/7,,3/4,3/4,5/6,4/7,8,2V47[8:2]/1,
{8},5,5,,{8}1b-5[8:1]/8b-4[8:1],,,,
{8}6/3-8[8:1],,5-1[8:1]/3,4,5/2V46[16:3],,2/8,8z4[8:2],
{8},3,3<6[8:1]*>8[8:1],,3,,1hx[8:1]/7hx[8:1],,
{8}6/2v5[8:1],6,6/2,6,6/2<7[8:1],6,2/6,5V37[8:2],
{8}4,8,1,2V48[8:2],,5x,5x,,
{8}7-2[8:1]/1,6,3-6[8:1],4,1-5[8:1],8,4-2[8:1],3,
{8}6-1[8:1],7,3-5[8:1],4,8z4[16:3]*s4[16:3],,8,,
{8}2x/6x,,3/5,4,3/6,7,2/8,8/2q5[8:3],
{8},6,6,,7>2[8:1]*<4[8:1],,7b,,
{8}3/8-5[8:1],,4/8,3-8[8:1],,3/5,6-3[8:1],,
{8}8/6,1-3pp3[16:7],,1/5,,,7,2h[8:1]/6h[8:1],
{8},1-5[8:1],8,7x-4[8:1]/1x,,7x/3x>6b[16:3]*p6b[16:3],,{48},D2f,A1f,D1f,A8f,D8f,
{8},,2h[8:1]/5h[8:1],,8-5[8:1]/4-1[8:1],,4b/8b,,
{8}6/3,5,7/1,3,{16}6,5,7,,{8}4/8,1,
{8}7/2,4,3/5,3-6[8:1]/5-8[8:1],,3/5,,1/2,
{8}5b/6bh[8:11],,,,,,,,
{8},,,4bw8b[8:1],,,,,
{8}2-5[8:1],1,8,7,,4/6>4[8:1],,6/1pp8[16:5],
{8},1/7,,5pp4[16:5],,3/5,,1pp6[16:6],
{8},1/5,5,,8,7,2,6pp5[16:5],
{8},6/2,3,4v1[8:1]*v7[8:1],,4,,{32}8x/2x,3,4,5,
{32}6,7,8,1,2,3,4,5,6,7,8,1,2,3,4,5,6,7,8,1,2,3,4,5,6,7,8,1,2x/C,,,,
{8},5/6,4/5,3-1[8:1]/4,,3/8-4[8:1],,2/8,
{8},3/5<8[8:1],4,3,2-6b[8:1],1,8,7b-4[8:1],
{8},7b/1bV35b[16:3],,1b/6b<1[8:1],,3bx,3bx,,
{32}1bpp4b[8:14]/8bqq5b[8:14],2b/7b,3b/6b,4b/5b,{8},,,,,,,
{8},,,,,,,,
{8},,,,,,,,
