&title=⊇繧�レよ☆ス〒≠ナょ魔シ去❣❗⋆。:゚・*☽
&artist=佐藤乃子; 名前シレズ
&first=0
&des_1=s
&des_2=w
&des_3=i
&des_4=t
&des_5=-?wi?y?
&lv_5=14?
&des_6=y
&des_7=-
&des=-
&inote_5=(720){1},
(180){4}B6/B7h[8:1]/1,3,5,7,
{4}A1,A3,A5,A7,
{256}1x,,,,,,,,,,,,,,,,,,,,,,,,,,,,,,,,,,,,,,,,,,,,,,,,,,,,,,,,,,,,,,,,A3,,,,,,,,,,,,,,,,,,,,,,,,,,,,,,,,,,,,,,,,,,,,,,,,,,,,,,,,,,,,,,,,5x,,,,,,,,,,,,,,,,,,,,,,,,,,,,,,,,,,,,,,,,,,,,,,,,,,,,,,,,,,,,,,,,A7,,,,,,,,,,,,,,,,,,,,,,,,,,,,,,,,,,,,,,,,,,,,,,,,,,,,,,,,,,,,,,,1?>5[1024:1],
{16}1x>5-1[8:1]*>5[1024:1],A2,A3,A4,,,B6/B7,,1hx[8:1],,3hx[8:1],,5hx[8:1],,E7,,
{4}B2h[8:1]/B3/8h[1024:1],6h[1024:1],4h[1024:1],2h[1024:1],
{4}A8h[1024:1],A6h[1024:1],A4h[1024:1],A2h[1024:1],
{4}8hx[1024:1],A6h[1024:1],4hx[1024:1],A2h[1024:1],
{256}7x,,,,,,,,,,,,,,,,,,,,,,,,,,,,,,,,6x,,,,,,,,,,,,,,,,,,,,,,,,,,,,,,,,5x/4hx[4:1],,,,,,,,,,,,,,,,,,,,,,,,,,,,,,,,A3,,,,,,,,,,,,,,,,A2,,,,,,,,,,,,,,,,A1h[1024:1],,,,,,,,,,,,,,,,,,,,,,,,,,,,,,,,4xV28[1024:1]/8xV64[1024:1],,,,,,,,,,,,,,,,,,,,,,,,,,,,,,4?>3-6[1024:1],8?<7-2[1024:1],4xz8b[8:1]/8$x/D8,D4,,,,,,,,,,,,,,A3,A7/D7,D3,,,,,,,,,,,,,,A2,D6/A6,D2,,,,,,,,,,,,,,A1,A5/D5,D1,,,,,,,,,,,,,,,
{4}4x/8x,2,8,6,
{4}A4,A2,A8,A6,
{256}4x,,,,,,,,,,,,,,,,,,,,,,,,,,,,,,,,,,,,,,,,,,,,,,,,,,,,,,,,,,,,,,,,A2,,,,,,,,,,,,,,,,,,,,,,,,,,,,,,,,,,,,,,,,,,,,,,,,,,,,,,,,,,,,,,,,8x,,,,,,,,,,,,,,,,,,,,,,,,,,,,,,,,,,,,,,,,,,,,,,,,,,,,,,,,,,,,,,,,A6,,,,,,,,,,,,,,,,,,,,,,,,,,,,,,,,,,,,,,,,,,,,,,,,,,,,,,,,,,,,,,,4?>8[1024:1],
{16}4x>8q4[8:1]*>8[1024:1],A3,A2,A1,,,B6/B7,,4hx[8:1],,2hx[8:1],,8hx[8:1],,E7,,
{4}B2h[8:1]/B3h[16:1]/5h[1024:1],7h[1024:1],1h[1024:1],3h[1024:1],
{4}A5h[1024:1],A7h[1024:1],A1h[1024:1],A3h[1024:1],
{256}5hx[1024:1],,,,,,,,,,,,,,,,,,,,,,,,,,,,,,,,,,,,,,,,,,,,,,,,,,,,,,,,,,,,,,,,A7h[1024:1],,,,,,,,,,,,,,,,,,,,,,,,,,,,,,,,,,,,,,,,,,,,,,,,,,,,,,,,,,,,,,,,1hx[1024:1],,,,,,,,,,,,,,,,,,,,,,,,,,,,,,,,,,,,,,,,,,,,,,,,,,,,,,,,,,,,,,,,A3h[1024:1],,,,,,,,,,,,,,,,,,,,,,,,,,,,,,,,,,,,,,,,,,,,,,,,,,,,,,,,,,,,,,,5?<1[1024:1],
{16}5x<1V75[8:1]*<1[1024:1],A6,A7,A8,,,Ch[8:3]/B2h[32:13]/B3h[16:7]/E3h[32:15],,7h[8:1],,,,,,7x,,
{8}3hx[4:1],,7,2h[4:1],,6,1h[4:1],,
{16}5,,,,5q4[4:1],,,,5,,,,A4/E3h[4:1],,C,B8,
{8}8hx[4:1],,4,7h[4:1],,3,6h[4:1],,
{16}1,,,,1p8[4:1],,,,1,,,,A6/A8h[4:1],B6,C,,
{8}5hx[4:1],,1,6h[4:1],,2,7h[4:3],,
{8}3,,,,1,,,1x-7-3[1024:1]/D1,
{256}7/1x/E1,,,,,,,,,,,,,,,,,,,,,,,,,,,,,,,,,,,,,,,,,,,,,,,,,,,,,,,,,,,,,,,1?-7[1024:1]*-7[1024:1],1x-7p3[1024:1]/D1,,,,,,,,,,,,,,,,,,,,,,,,,,,,,,,,7/1x/E1,,,,,,,,,,,,,,,,,,,,,,,,,,,,,,,,,,,,,,,,,,,,,,,,,,,,,,,,,,,,,,,,1x-7-5b[1024:1]*-7-5-3[1024:1]/D1,,,,,,,,,,,,,,,,,,,,,,,,,,,,,,,,7/1x/E1,,,,,,,,,,,,,,,,,,,,,,,,,,,,,,,,,,,,,,,,,,,,,,,,,,,,,,,,,,,,,,,1?-7<5b[1024:1]*-7<4[1024:1],
{256}1x-7<3[1024:1]/D1,,,,,,,,,,,,,,,,,,,,,,,,,,,,,,,,7/1x/E1,,,,,,,,,,,,,,,,,,,,,,,,,,,,,,,,,,,,,,,,,,,,,,,,,,,,,,,,,,,,,,,,1x,,,,,,,,,,,,,,,,,,,,,,,,,,,,,,,,1x-3[8:1],,,,,,,,,,,,,,,,1?-4[16:1]*-4[16:1],,,,,,,,,,,,,,,,1x-7[8:1],,,,,,,,,,,,,,,,1?-6[16:1]*-6[16:1],,,,,,,,,,,,,,,,1?-5b[16:1],A2,,,,,,,,,,,,,,,B3,,,,,,,,,,,,,,,,A8,,,,,,,,,,,,,,,,B7,,,,,,,,,,,,,,,,
{8}1x,,7,4h[4:1],,8,5h[4:1],,
{8}1w5[4:1],,,,,,,4,
{8}7h[4:1],,3,6h[4:1],,2,5h[4:1],,
{8}1h[2:1],,,,5,,2-6[8:1],,
{4}1-5[8:1],8-4[8:1],7-3[8:1],8,
{8}8,2,4,6,8h[1024:1],2h[1024:1],4h[1024:1],6h[1024:1],
{256}8x>1>2>3<4[1024:1]/D8/E8,,,,,,,,,,,,,,,,,,,,,,,,,,,,,,,,2x>3<4<5<6[1024:1]/D2/E2,,,,,,,,,,,,,,,,,,,,,,,,,,,,,,,,4x<5<6<7>8[1024:1]/D4/E4,,,,,,,,,,,,,,,,,,,,,,,,,,,,,,,,6x<7>8>1>2[1024:1]/D6/E6,,,,,,,,,,,,,,,,,,,,,,,,,,,,,,,,A8/D8/E8,,,,,,,,,,,,,,,,,,,,,,,,,,,,,,,,A2/D2/E2,,,,,,,,,,,,,,,,,,,,,,,,,,,,,,,4?<8[1024:1],4x>8[1024:1]*>8z4b[8:1]*<8z4b[8:1]/D4,D5,,,,,,,,,,,,,,A5,A3/D3,D6,,,,,,,,,,,,,,A6,A2/D2,D7,,,,,,,,,,,,,,A7,A1/D1,D8,,,,,,,,,,,,,,,
{2}A8h[2:1],C,
{16}A4h[1:1]/5b<8-2-7-3-6-4-8[4:7],D6,A6,D7,A7,D8,A8,D1,A1,D2,A2,E2,B1,B8,E8,A7,
{16}B7,C,B3,A3,E4,B4,B5,E6,A6/2hx[1024:1],D6,A5,D5,A4/3hx[1024:1],B4,C,B8,
{16}A8h[16:15]/4>1-3-8-4-7-5-1[4:7],D4,A3,D3,A2,D2,A1,D2,A2,D3,A3,E3,B2,B1,E1,,
{16}B8,C,B4,A4,E5,B5,B6,E7,A7/8hx[1024:1],D7,A6,D6,A5/7hx[1024:1],B5,C,B1,
{16}A1h[2:1]/6-3-8-5-2-7-4<5[4:7],E6,B5,B4,E4,A3,E3,B2,B1,E1,A8,E8,B7/1hx[1024:1],B6,E6/1hx[1024:1],A5,
{16}E5,B4,B3,E3,A2,E2,B1,B8,E8,A7,E7,B6,B5,E5,A4/2hx[1024:1],D5,
{16}A5h[4:3]/2-7-4-1-6-3-8>1[4:7],E2,B1,B8,E8,A7,E7,B6,B5,E5,A4,E4,B3,B2,E2,A1,
{16}E1/5hx[1024:1],B8,B7,E7,A6,E6,B5,B4,E4/7hx[1024:1],A3,E3,B2,B1,E1,A8,D1,
{16}A1h[1:1]/5v6>4p7p3>2v3-6[4:7],B5,C,B6,A6,D6,A5,D5,A4,E4,B3,B2,B1,B8,E8,A7,
{16}E7,B6,B5,B4,E4,A3,D3,A2,B2/1hx[1024:1],C,B3,A3,E4/1hx[1024:1],B4,B5,E6,
{16}A6h[1:1]/1pp2pp5p2[4:7],B1,C,B4,E4,A3,D3,A2,B2,C,B5,E5,A4,D4,A3,E3,
{16}B2,C,B5,A5,E5,B4,B3,B2,B1/7hx[1024:1],B8,B7,B6,B5/6hx[2024:1],B4,B3,E3,
{16}A2h[2:1]/5p7-4<6q1<8[4:7],E5,B4,B3,B2,B1,B8,E8,A7,E7,B6,B5,E5/2hx[1024:1],A4,D5/2hx[1024:1],A5,
{16}D6,A6,E7,B7,B8,B1,B2,B3,B4,B5,B6,B7,B8,E1,A1/3hx[1024:1],D1,
{16}A8h[1:1]/3>1-5<7-3[4:3],D3,A2,D2,A1,B1,C,B5,A5,D6,A6,D7,A7,B7,C,B3,
{1}A3h[8:3]/E3h[2:1]/D3h[8:5]/E4h[4:3]/D4h[8:7],
{16}8x-6[8:1],,7,,8,,4,3,2x-4[8:1],,1,,2,,,,
{16}8x-5[8:1],,7,,8,,3,2,1x-4[8:1],,8,,1,,,,
{16}8x-4[8:1],,7,,8,,2,1,8x-5[8:1],,2-5[8:1],,8-4[8:1],,2-6[8:1],,
{16}A8,C,A2,C,,,E6,,E4,,E8,,E2,,C,,
{16}1x-3[8:1],,2,,1,,5,6,7x<5[8:1],,8,,7,,,,
{16}1x-4[8:1],,2,,1,,6,7,8x<5[8:1],,1,,8,,,,
{16}1x-5[8:1],,2,,1,,7,8,1x>4[8:1],,7<4[8:1],,1-5[8:1],,7-3[8:1],,
{16}A1,C,A7,C,,,E4,,E6,,E2,,E8,,C,,
{16}8x<6[8:1],,7,,8,,4,3,2x-4[8:1],,1,,2,,,,
{16}8x<5[8:1],,7,,8,,3,2,1x-4[8:1],,8,,1,,,,
{16}8x<4[8:1],,7,,8,,2,1,8x-5[8:1],,2-5[8:1],,8-4[8:1],,2-6[8:1],,
{256}A8,E8,,,,,,,,,,,,,,,C,,,,,,,,,,,,,,,,A2,E3,,,,,,,,,,,,,,,C,,,,,,,,,,,,,,,,,,,,,,,,,,,,,,,,,,,,,,,,,,,,,,,,E6,B6,,,,,,,,,,,,,,,,,,,,,,,,,,,,,,,E4,B4,,,,,,,,,,,,,,,,,,,,,,,,,,,,,,,E8,B8,,,,,,,,,,,,,,,,,,,,,,,,,,,,,,,E2,B2,,,,,,,,,,,,,,,,,,,,,,,,,,,,,,,C,,,,,,,,,,,,,,,,,,,,,,,,,,,,,,,,
{16}1x>3[8:1],,2,,1,,5,6,7x-5[8:1],,8,,7,,,,
{16}1x>4[8:1],,2,,1,,6,7,8x-5[8:1],,1,,8,,,,
{16}1x>5[8:1],,2,,1,,7,8,1x>4[8:1],,7<4[8:1],,1-5[8:1],,7-3[8:1],,
{256}A1,E2,,,,,,,,,,,,,,,C,,,,,,,,,,,,,,,,A7,E7,,,,,,,,,,,,,,,C,,,,,,,,,,,,,,,,,,,,,,,,,,,,,,,,,,,,,,,,,,,,,,,,E4,B3,,,,,,,,,,,,,,,,,,,,,,,,,,,,,,,E6,B5,,,,,,,,,,,,,,,,,,,,,,,,,,,,,,,E2,B1,,,,,,,,,,,,,,,,,,,,,,,,,,,,,,,E8,B7,,,,,,,,,,,,,,,,,,,,,,,,,,,,,,,C,,,,,,,,,,,,,,,,,,,,,,,,,,,,,,,,
{8}E6/1x-4>3[8:3],,E7/1>3[12:1],E8,1,B7,B6,,
{8}E8h[2:1]/1-4>3[8:3],,1-3[12:1],,1,,,E5,
{8}E4/8xv5[8:3],,E3/8-5[8:1],E2,8,B2,B3,,
{4}E2h[2:1]/8-5[8:3],8v5[8:1],8,,
{4}B7/1x>2>3<4[8:3],E6/1>2>3>2>3<4[8:1],1,E7,
{8}E8h[2:1]/1>2>3<4[8:3],,1-4[8:1],,1,,E5,E4,
{8}E3h[2:1]/8x<7-5[8:3],,8-6>5[8:1],,8,,1h[4:5],5-1[40#40:1],
{1},
{4}5>4[4:23]/C,,,B2,
{4},,E7,B8,
{1},
{1},
{1},
{1},
{1}4h[1:2],
{1},
{32}B7h[1:1],E8h[32:31]/3x,A7h[16:15]/2x,,,,,,,,,,,,,,,,,,,,,,,,,,,,,,
{32}B3h[1:1],E4h[32:31]/6x,A3h[16:15]/5x,,,,,,,,,,,,,,,,,,,,,,,,,,,,,,
{16}7b<6>5[1024:1]*<6>5>4[8:1]*<6>5>4>3[4:1]*<6>5>4>3>2[8:3]*<6>5>4>3>2<1[2:1]*<6>5>4>3>2<1<8[8:5]*<6>5>4>3>2<1<8<7[4:3],D7,A6,D6,A5,D5,A4,D4,A3,D3,A2,D2,A1,D1,A8,D8,
{16}3-1-7[4:1]*-1-7-5[2:1]*-1-7-5-3[4:3]/2?-8[8:1]*-8-6[8:3]*-8-6-4[8:5]*-8-6-4-2[8:7]/A7/B3,E3,A2,E2,A1,E1,A8,E8,7hx[1024:1],E7,A6,E6,5hx[1024:1],E5,A4,E4,
{16}6<7>8[1024:1]*<7>8>1[8:1]*<7>8>1>2[4:1]*<7>8>1>2>3[8:3]*<7>8>1>2>3<4[2:1]*<7>8>1>2>3<4<5[8:5]*<7>8>1>2>3<4<5<6[4:3]/3hx[1024:1],D7,A7,D8,A8,D1,A1,D2,A2,D3,A3,D4,A4,D5,A5,D6,
{16}2-5[8:1]*-5-8[2:1]*-5-8-3[8:7]/1?-4[1024:1]*-4-7[8:3]*-4-7-2[4:3]/3?-6[4:1]*-6-1[8:5]/A6/B2,E3,A3,E4,A4,E5,A5,E6,6hx[1024:1],E7,A7,E8,8hx[1024:1],E1,A1,E2,
{16}6>5>4[1024:1]*>5>4>3[8:1]*>5>4>3>2[4:1]*>5>4>3>2<1[8:3]*>5>4>3>2<1<8[2:1]*>5>4>3>2<1<8<7[8:5]*>5>4>3>2<1<8<7<6[4:3]/2hx[1024:1],D6,A5,D5,A4,D4,A3,D3,A2,D2,A1,D1,8hx[1024:1],D8,7hx[1024:1],D7,
{16}3v5[1024:1]*v6[8:1]*-7[4:1]*v8[8:3]*v1[2:1]/4?v2[8:5]/A6/B3,E4,B4,E5,B5,E6,B6,E7,B7,E8,B8,E1,B1,E2,2hx[1024:1],E3,
{16}7>8>1[1024:1]*>8>1>2[8:1]*>8>1>2>3[4:1]*>8>1>2>3<4[8:3]*>8>1>2>3<4<5[2:1]*>8>1>2>3<4<5<6[8:5]*>8>1>2>3<4<5<6<7[4:3]/3hx[1024:1],D8,A8,D1,A1,D2,A2,D3,A3,D4,A4,D5,A5,D6,A6,D7,
{16}3-1[1024:1]*-8[8:1]*-7[4:1]*-6[8:3]*-5[2:1]*-7-3[4:3]/A7/B3,E3,B2,E2,B1,E1,B8,E8,7hx[1024:1],E7,B6,E6,B5,E5,B4,E4,
{16}8-6[1024:1]*-6-2[16:3]*-6-2-4[8:3]*-6-2-4z8[0.33##1]*-6-2-4z8[0.39##0.94]*-6-2-4z8[0.44##0.89]/3hx[1024:1],E8,E7,A6,B6,C,B2,A2,E3,E4,A4,B5,B6,C,B2,B1,
{16}3-5[1024:1]*-6[8:1]*q7[4:1]*q8[8:3]*q1[2:1]*q2[8:5]*q3[4:3]*q4[8:7]/A8/B3,E4,B4,E5,B5,E6,B6,E7,7hx[1024:1],E8,B8,E1,1hx[1024:1],E2,B2,E3,
{16}7>1[1024:1]*>1-5[4:1]*>1-5>4[8:3]*>1-5>3[2:1]*>1-5>3-7[4:3]/3hx[1024:1],D8,A8,D1,A1,B1,C,B5,A5,D5,A4,D4,A3,B3,C,B7,
{16}1qq7[1024:1]*qq8[8:1]*qq1[4:1]*qq2[8:3]*qq3[2:1]*qq4[8:5]*qq5[4:3]/A7/B1,C,B6,E7,A7,D8,A8,E1,1hx[1024:1],E2,B2,E3,3hx[1024:1],E4,B4,E5,
{16}8-3[16:1]*-3>2[8:1]*-3>2-6[8:3]*-3>2-6<7[16:7]*-3>2-6<7-4[4:3]/5hx[1024:1],E1,B1,B2,E3,A3,A2,B2,C,B6,A6,A7,E7/1hx[1024:1],B6,B5/1hx[1024:1],E5,
{16}1>2>3[1024:1]*>2>3<4[8:1]*>2>3<4<5[4:1]*>2-5[4:1]*>2>3<4<5<6[8:3]*-6[8:3]*>2>3<4<5<6<7[2:1]*>2>3<4-7[2:1]*>2>3<4<5<6<7>8[8:5]*>2>3-8[8:5]*>2>3<4<5<6<7>8>1[4:3]/A3/B1,E2,A2,E3,B3,E4,A4,E5,B5,E6,A6,E7,B7,E8,8hx[1024:1],E1,
{16}7q3[8:1]*q3q7[2:1]*q3q7-3[4:3]/2hx[1024:1],E8,B8,B1,B2,E3,A3,E4,B4,B5,B6,E7,A7,B7,C,B3,
{8}E3h[8:3]/D3h[2:1]/E4h[8:5]/D4h[4:3]/A3h[8:7]/1$x,,,,1?<8<7<6>5[0.67##0.39],1?<8<7<6>5>4>3>2<1[0.5##0.78],1?-7-5[0.33##0.39]/1?-7-5[0.33##0.39],1?-7-5-3-1[0.17##0.78]/1?-7-5-3-1-7-5[0.17##1.17]/1?-7-5-3-1-7-5-3-1[0.17##1.55],
{1}1x/1?<1<1<8<7<6>5>4>3>2<1b[0.01##2.33]*<8-6-4-2-8-6-4-2-8-6-4-2<1bb[0.01##2.33],
{8},,,A6h[1024:1],D5h[1024:1],D3h[1024:1],A1h[1024:1],D8h[1024:1]
,
{16}7<5[8:1]*-5[8:1],,6,,7,,3,2,1-3[8:1]*>3[8:1],,8,,1,,,,
{16}7<4[8:1]*-4[8:1],,6,,7,,2,1,8-3[8:1]*>3[8:1],,7,,8,,,,
{16}7<3[8:1]*p3[8:1],,6,,7,,1,8,7-4[8:1]*-4[8:1],,1-4[8:1]*-4[8:1],,7-3[8:1]*-3[8:1],,1-5[8:1]*-5[8:1],,
{16}A7/E7,C,A1/E2,C,,,E5/B5,,E3/B3,,E7/B7,,E1/B1,,C,,
{16}2>4[8:1]*-4[8:1],,3,,2,,6,7,8-6[8:1]*<6[8:1],,1,,8,,,,
{16}2x>5[8:1]*-5[8:1],,3,,2,,7,8,1x-6[8:1]*<6[8:1],,2,,1,,,,
{16}2x>6[8:1]*q6[8:1],,3,,2,,8,1,2>5[8:1]*>5[8:1],,8<5[8:1]*<5[8:1],,2-6[8:1]*-6[8:1],,8-4[8:1]*-4[8:1],,
{16}A2/E3,C,A8/E8,C,,,E5/B4,,E7/B6,,E3/B2,,E1/B8,,C,,
{256}1xq6>1[0.01##1.32],5x,,,,,,,,,,,,,,,E6,,,,,,,,,,,,,,,,B6,,,,,,,,,,,,,,,,B7,,,,,,,,,,,,,,,,B8,,,,,,,,,,,,,,,,B1,,,,,,,,,,,,,,,,E2,,,,,,,,,,,,,,,,D2,,,,,,,,,,,,,,,,A1,,,,,,,,,,,,,,,,D1,,,,,,,,,,,,,,,,A8,,,,,,,,,,,,,,,,D8,,,,,,,,,,,,,,,,A7,,,,,,,,,,,,,,,,D7,,,,,,,,,,,,,,,,A6,,,,,,,,,,,,,,,,D6,,,,,,,,,,,,,,,,
{256}5xv7<6v8<7v1[0.01##1.32],1x,,,,,,,,,,,,,,,B1,,,,,,,,,,,,,,,,C,,,,,,,,,,,,,,,,B3,,,,,,,,,,,,,,,,A3,,,,,,,,,,,,,,,,D3,,,,,,,,,,,,,,,,A2,,,,,,,,,,,,,,,,B2,,,,,,,,,,,,,,,,C,,,,,,,,,,,,,,,,B4,,,,,,,,,,,,,,,,A4,,,,,,,,,,,,,,,,D4,,,,,,,,,,,,,,,,A3,,,,,,,,,,,,,,,,B3,,,,,,,,,,,,,,,,C,,,,,,,,,,,,,,,,B5,,,,,,,,,,,,,,,,
{256}5x>3-6-2-4[0.01##1.32],1x,,,,,,,,,,,,,,,D1,,,,,,,,,,,,,,,,A8,,,,,,,,,,,,,,,,D8,,,,,,,,,,,,,,,,A7,,,,,,,,,,,,,,,,E8,,,,,,,,,,,,,,,,B8,,,,,,,,,,,,,,,,B1,,,,,,,,,,,,,,,,E2,,,,,,,,,,,,,,,,A2,,,,,,,,,,,,,,,,B2,,,,,,,,,,,,,,,,C,,,,,,,,,,,,,,,,B6,,,,,,,,,,,,,,,,A6,,,,,,,,,,,,,,,,E7,,,,,,,,,,,,,,,,E8,,,,,,,,,,,,,,,,
{256}4xpp4qq4[0.01##1.32],8x,,,,,,,,,,,,,,,B8,,,,,,,,,,,,,,,,C,,,,,,,,,,,,,,,,B3,,,,,,,,,,,,,,,,E3,,,,,,,,,,,,,,,,A2,,,,,,,,,,,,,,,,E2,,,,,,,,,,,,,,,,E1,,,,,,,,,,,,,,,,A8,,,,,,,,,,,,,,,,B8,,,,,,,,,,,,,,,,C,,,,,,,,,,,,,,,,B5,,,,,,,,,,,,,,,,E6,,,,,,,,,,,,,,,,A6,,,,,,,,,,,,,,,,E7,,,,,,,,,,,,,,,,E8,,,,,,,,,,,,,,,,
{256}4x-1<8q5<6[0.01##1.32],8x-5>4q1>2[0.01##1.32]*-5>4q1>2[0.01##1.32]/E8,,,,,,,,,,,,,,,E4,,,,,,,,,,,,,,,,B3,B7/B6,,,,,,,,,,,,,,,B2,,,,,,,,,,,,,,,,E2,E6/A5,,,,,,,,,,,,,,,A1,,,,,,,,,,,,,,,,D1,D5/A4,,,,,,,,,,,,,,,A8,,,,,,,,,,,,,,,,E1,E5/B5,,,,,,,,,,,,,,,B1,,,,,,,,,,,,,,,,B2,B6/B7,,,,,,,,,,,,,,,B3,,,,,,,,,,,,,,,,B4,B8/E1,,,,,,,,,,,,,,,E5,,,,,,,,,,,,,,,,A5,A1/D2,,,,,,,,,,,,,,,D6,,,,,,,,,,,,,,,,
{256}2xp4<5<6<7>8[0.01##1.32],6xp8>1>2>3<4[0.01##1.32]*p8>1>2>3<4[0.01##1.32]/E6,,,,,,,,,,,,,,,E2,,,,,,,,,,,,,,,,B1,B5/B4,,,,,,,,,,,,,,,B8,,,,,,,,,,,,,,,,B7,B3/B2,,,,,,,,,,,,,,,B6,,,,,,,,,,,,,,,,B5,B1/E1,,,,,,,,,,,,,,,E5,,,,,,,,,,,,,,,,4x,8x/D1,,,,,,,,,,,,,,,D5,,,,,,,,,,,,,,,,A5,A1/D2,,,,,,,,,,,,,,,D6,,,,,,,,,,,,,,,,A6,A2/D3,,,,,,,,,,,,,,,D7,,,,,,,,,,,,,,,,A7,A3/D4,,,,,,,,,,,,,,,D8,,,,,,,,,,,,,,,,
{256}4x<6-4-2-7[0.01##1.32],8x>2-8-6-3[0.01##1.32]*>2-8-6-3[0.01##1.32]/D1,,,,,,,,,,,,,,,D5,,,,,,,,,,,,,,,,A5,A1/D2,,,,,,,,,,,,,,,D6,,,,,,,,,,,,,,,,A6,A2/B2,,,,,,,,,,,,,,,B6,,,,,,,,,,,,,,,,B5,B1/E1,,,,,,,,,,,,,,,E5,,,,,,,,,,,,,,,,A4,A8/E8,,,,,,,,,,,,,,,E4,,,,,,,,,,,,,,,,E3,E7/A6,,,,,,,,,,,,,,,A2,,,,,,,,,,,,,,,,E2,E6/B5,,,,,,,,,,,,,,,B1,,,,,,,,,,,,,,,,B8,B4/E4,,,,,,,,,,,,,,,E8,,,,,,,,,,,,,,3x<7[0.01##0.72],7?>3[0.01##0.72]*>3[0.01##0.72],
{256}3x<7>8>1>2>3[0.01##1.32],7x>3<4<5<6<7[0.01##1.32]*>3<4<5<6<7[0.01##1.32]/D8,,,,,,,,,,,,,,,D4,,,,,,,,,,,,,,,,A4,A8/D1,,,,,,,,,,,,,,,D5,,,,,,,,,,,,,,,,A5,A1/D2,,,,,,,,,,,,,,,D6,,,,,,,,,,,,,,,,A6,A2/D3,,,,,,,,,,,,,,,D7,,,,,,,,,,,,,,,,A7,A3/D4,,,,,,,,,,,,,,,D8,,,,,,,,,,,,,,,,A8,A4/D5,,,,,,,,,,,,,,,D1,,,,,,,,,,,,,,,,A1,A5/D6,,,,,,,,,,,,,,,D2,,,,,,,,,,,,,,,,A2,A6/D7,,,,,,,,,,,,,,,D3,,,,,,,,,,,,,,,,
{1}7x>2[4:11]/A3h[8:1],
{4}C,,,E2,
{8}B6,,,,,,,B8,
{8},E4,,,,,,,
{1}3x<6[4:11]/B5h[8:1],
{1}E7,
{1}C,
{16}B2h[4:3],B3h[32:23],B6h[16:11],B7h[32:21],,,,,,,,,,,,,
{1},
E
