&title=Paradigm Shift
&artist=モリモリあつし
&first=0.05
&lv_5=1
&des_5=empite
&inote_5=
(145){4},{8},,,,,,4/3h[8:1],
4,5/6h[8:1],5,{4}8/1w5[8:1],1b/Cf,
{16}5,4,5,4,6x,4,5,4,5,4,5,4,6x,4,5,5,
4,5,4,5,3x,5,4,5,4,5,4,5,3x,5,4,4,
{8}5h[8:1],{16}3,4,2,2h[8:1],,4,1,2,3,4,5/8,7,6,5,
{8}4/3,{16}2,2,4,3,5,4,{8}6,{16}3,2/4,,6,{8}5/7,
4,4/5,4/6,4/7,4/E1,4/B7,4/B2,4/B6,
5,5/4,5/3,5/2,5/E1,5/B2,5/B7,5/B3,
{16}4,5,4,5,3,6,3,6,2,7,2,7,1,8,1,8,
{24}1,2,3,8,7,6,{32}2,3,4,5,6,7,8,1,{16}6/2-5[64:3],,,2/8-4[64:3],,,{8}8/1,
{4}1w5[16:1],1b/Cf,{8}6/5<8[8:1],4,4x/5x,3x,
7/2-5[8:1],1,2/7-4[8:1],8,{16}7/5,4,3,2,{8}5x/1x,7x,
8/4,{16}7,6/5,,2,{8}3/4,{16}6,5,{8}8h[8:1],1x,1x,
2/7,{16}3,6,4,5,3,6,{8}4/5h[8:1],2,5/4h[8:1],7,
8/3,{16}4,7,3,6,2,5,{8}3/4>1[8:1],5,5x/4x,6x,
2/7-4[8:1],8,7/2-5[8:1],1,{16}2/4,5,6,7,{8}4x/8x,2x,
1/5,{16}2,3/4,,7,{8}6/5,{16}3,4,{8}1h[8:1],8x,8x,
7/2,{16}6,3,5,4,6,3,{8}5/4h[8:1],7,4/5h[8:1],2,
1/8,{16}7,1,6,1,5,1,{8}4-7[8:1],1-6[8:1],4x,1x,
8,8/2,7/3,6/4,{16}5x,5x,5x,5x,{4}5xh[8:1],
{8}6/3,{16}2,4,3,5,4,6,{8}5-2[8:1],7-4[8:1],5x,7x,
1-5[8:1],8-4[8:1],1,8,{16}1,,,6/2,,,{8}7/3,
6/4,6/4,7/3,7/3,8/2,8/2,{16}1,1,1,1,
{8}8,8,7/1,1/7,6/2,5/3,4x,4x,
{16}5,4,5,4,6,3,6,3,7,2,7,2,{64}8,E8,E7,E6,,,,,1,E2,E3,E4,,,,,{8}6,
3/7,6/2,{16}7/3,{32}3/7pp4[16:3],B7/B3,{2}Cf,
7b/2b,{16}B6,,,B5,,,{8}B4,
{2}B3,{16}B2,,,B1,,,{8}B8,
{2}B7/B6/E7fh[1:1],{16}E6,,,E5,,,{8}E4,
E3,,,E8,{16}E2,,,B6,,,{8}B3,
{2}E5f,{16}B4,,,B3,,,{8}B2,
{2}B1/B5f,{16}B5,,,B6,,,{8}B7,
B8/B4f,B6,B1/B5,B3,E2/E8,{32}E3,E4,E5,E6,{8}E7,4,
{4}3/6h[4:1],{48}4x,3x,{24}2xh[24:5],{48},,,,,,,,5x,6x,{24}7xh[24:5],{48},,,,,,,,3x,4x,{24}5xh[24:5],{96},,,,,,,,,,,,,,,,{32}8b,
7,6,5,4,3,2,1,8,7,6,5,4,3,2,1,{16}5/8h[8:3],,,3,,,{8}1,
{32}1b,2,3,4,5,6,7,8,1,2,3,4,5,6,7,8,{16}4/1h[8:3],,,5,,,{8}6,
{32}6b,5,4,3,2,1,8,7,6,5,4,3,2,1,8,7,{16}1/6h[8:3],,,2,,,{8}3,
{32}3b,4,5,6,7,8,1,2,3,4,5,6,7,8,1,2,{16}5/3h[8:3],,,6,,,{8}8,
{16}1x/8-4[8:1],,,2x,,,{8}3x,{16}3-7[8:1],4x,,,5x,,,6x,
{8}7-2[8:1],5x,{16},4x,,,2x/5-1[8:1],,,3x,,,{8}4x,
{4}4-7[8:1],4/7-2[8:1],7/2-5[8:1],2/5,
{8}8/6,7/5,6/4,5/3,{32}5b-1[3.3103##0.2069],4,3,2,1,8,7,6,5bw1b[3.3103##0.2069],4,3,2,1,8,7,6,
{1}5h[4:5]/4bh[2:3],
{4},,5b/C,5bh/Cfh[8:0],
{16}8/1,2,3,4,7,6,5,4,2,3,4,5,8,7,6,5,
1,2,3,4,5/1,2,3,4,1/5V31[16:3],2/6,7/3,8/4,{4}5/1h[8:1],
{16}8,7,6,5,2,3,4,5,7,6,5,4,1,2,3,4,
8,7,6,5,4/8,7,6,5,8/4V68[16:3],7/3,2/6,1/5,{4}4/8h[8:1],
{16}1,2,3,4,5/8,4,3,2,1/8,7,6,5,4/1,5,6,7,
8/1,2,3,4,5/1,6,7,8,5/1V75[16:3],2/6,7/3,8/4,{4}1/5h[8:1],
{16}4,5,4,5,2,5,4,5,7,5,4,5,3,5,4,5,
3,6,2,7,{24}1,8,1,8,1,8,{8}2x/7xh[8:3],{16}1x,2x,3x,4x,{8}5xh[8:1],
{16}1-4[8:1],8,7,6,1/5-2[8:1],6,7,8,5/1-4[8:1],8,7,6,1/5-2[8:1],6,7,8,
5/1-4[8:1],8,7,6,5/1,6,7,8,1/5V73[16:3],8/4,7/3,6/2,{4}5/1h[8:1],
{16}8-5[8:1],1,2,3,8/4-7[8:1],3,2,1,4/8-5[8:1],1,2,3,8/4-7[8:1],3,2,1,
4/8-5[8:1],1,2,3,4/8,3,2,1,8/4V26[16:3],1/5,6/2-6-4b[8:1],3/7,{4}4/8h[8:1],
8b-5[8:1],{8}4/8-3[8:1],4,4/8<5[8:1],4,4/8>3[8:1],4,
4/8-5[8:1],4,4/8-4[8:1],4,3/8-3[8:1],3,2/8,2,
{16}8,1,8,1,7,2,6,3,5,4,5,4,6,3,7,2,
{24}8,7,6,2,3,4,{32}7,6,5,4,3,2,1,8,{8}7h[8:3],{16}1x,2x,3x-7[8:1],4x,{8}5x,
{2}3bx/Cf,{16}B6,,,B5,,,{8}B4,
{2}B3,{16}B2,,,B1,,,{8}B8,
{2}B7,{16}B6,,,B5,,,{8}B4,
B3,,,E7,{16}E3,,,E6,,,{8}E4,
{2}E5,{16}B5,,,B6,,,{8}B7,
{2}B8,{16}B4,,,B3,,,{8}B2,
B1,B3,B8,B6,C,{32}E4,B4,B5,E6,,,,,{8}B3,
{1}B6,
E
