&title=STELLAR WIND
&artist=L.E.D
&first=-0.027
&des=白-ster
&lv_5=13+
&des_5=白-ster
&inote_5=
(160){4},{8},,6/2<2[2:1],8/4,,,,,,,{4}8,
7,
6,5,1,2,
3,{8}4/7,4,{4}6/5-2[8:1],5/6-1[8:1],
6/3-5[8:1],3,8b,3/1-5[8:1],
1b/7,{16}4,7,4,7,{4}4,7,
6,5,8,7,
6,5,{8}2/8-5[8:1],1,{4}1/8,
{8}6/1-4[8:1],7,{4}1/8,{8}3/5,{16}3,4,,4,{8}5,
{16}6,4,6,4,7,3,8,2,{4}1,2,
3,{8}4/8,4,5/7,{16}6,8,,1,{8}3,
2/4,{16}3,4,,4,{8}5,6/8,{16}7,1,,1,{8}7,
{16}2,2,,6,5,7,{8}4,8/3,{16}2,1,,7,{8}8,
{16}6,6,,3,4,2,{8}5,{4}8,7,
6,{8}3/5-1[8:1],4,5/6,{16}7,7,,2,{8}2,
8/3,{16}4,5,,5,{8}6,{16}1,8,,6,4,6,{8}4,
{16},3/6,,5,{8}4,{16}4,6,{8}3,{16}2,1,,1,{8}8,
{16}7,1,,6,{8}4,2/5,1,8-6[8:1],2,8,
3,5-7[8:1],4,5,1,8-5[8:1],2,8,
3,6,5-7[8:1]/4-2[8:1],1/8,{4}4/5,{8}8,1-4[8:1],
7,1,6,3,5,{16}3,8,,2,{8}1,
8/3,{16}7,4,,6,{8}5,8,1-3[8:1],7,1,
6,4-2[8:1],5,4,8,1-4[8:1],7,1,
6,3,{4}5>2[8:1]/4<7[8:1],4/5,{8}1/8,6,
1/8,{16}2,4,,3,{8}5,6/4,{16}7,5,,5,{8}3,
1/8,{16}2,7,,3,{8}6,{16}2,1,3,8,{8}2,{16}6,5,
{8}7-3[8:1],1/5,7,2,{16}7,8,6,1,{8}7,{16}3,4,
{8}2-6[8:1],8/4,2,7,1/3,{16}2,4,,3,{8}5,
8/6,{16}7,5,,6,{8}4,5/4,{16}3,6,,2,{8}7,
{16}1-5[8:1],8,,8,{8}1,7,6/4,2,3/5,7,
6/5,3,3/4,6,2/4,7,7/5,2,
8/4,2,1/5,7,{16}1,3,,8,{4}2b,
{16}8-5[8:1]/1-4[8:1],2/7,,1/8,{4}1/8,{16}2-5[8:1]/7-4[8:1],3/6,,2/7,{4}2/7,
{16}6h[32:1],3h[32:1],6h[32:1],3h[32:1],6h[32:1],3h[32:1],6b,4b,{8}5b<1[8:3],,,1>4[8:3],
,,{4}4<7[8:3],{8},7>2[4:1],,,2,
3,{16}4,2,4,2,{8}4,4,{16}5,6,,2,
{8}1,8,{16}7h[16:1]/4h[16:1],,,5h[16:1]/2h[16:1],,,{8}6h[16:1]/1h[16:1],{16},3h[16:1]/8h[16:1],,,2/4,
,,6h[16:3],,,{8}2,1-4[8:1]/7-4[8:1],8,{4}1/7,
{8}5/3,4,{16}3h[8:1],,,4h[8:1],,,,5,6,5,,1,
{8}2>5[8:1],2,8,7,{16}6h[16:1]/4h[16:1],,,3h[16:1]/5h[16:1],,,{8}4h[16:1]/7h[16:1],
{16},2h[16:1]/5h[16:1],,,1h[16:1]/8h[16:1],,,7h[16:1]/4h[16:1],,,{8}8h[16:1]/1h[16:1],{16},2h[16:1]/5h[16:1],,,{8}8h[16:1]/4h[16:1],
2h[16:1]/6h[16:1],{16}8,4,7,3,6b,,,5/4,,,{8}6,
{16},,,,6/4>2[8:1],,,6,{8}4,7,{16},7,{8}1-4[8:1],
6,{16}1,6,,,{8}6,{16}6,4,,7,{8}3,{16}2,1,
,6,{8}5,{16}3,,,3,,,{8}4,{16},4,,,2,
4,,5,7,4,6,3,{8}5h[16:1]/3h[16:1],3h[16:1]/5h[16:1],3h[16:1]/5h[16:1],2h[16:1]/6h[16:1],
2h[16:1]/6h[16:1],2h[16:1]/6h[16:1],7b/1b,8b/3b,7h[16:1]/2h[16:1],2h[16:1]/7h[16:1],2h[16:1]/7h[16:1],2h[16:1]/7h[16:1],
6h[16:1]/2h[16:1],2h[16:1]/6h[16:1],6h[16:1]/2h[16:1],6b/2b,8b/4b,{16}7,3,8h[32:1],1h[32:1],8h[32:1],1h[32:1],
7,3,7,3,8h[32:1],1h[32:1],8h[32:1],1h[32:1],7,3,6,4,7,2,8,4,
6,1,{32}8,7,6,5,{16}4b,2h[16:1],,,,,,,,,,,,,,,,,,,2,
1,,7,{8}4,{16}6,2,
8,4,6,2,8,1,,6,{8}4,{16}2,1,3,8,{8}4,
{16}6,5,,2,8b,1,{8}8,{16}7,5,,2,{8}1,{16}6,5,
7,4,{8}6,{16}2,1,,5,{8}6,{16}3,7,2,6,{8}3,
5h[16:1]/4h[16:1],4h[16:1]/5h[16:1],3h[16:1]/6h[16:1],2h[16:1]/7h[16:1],{16}8,1,,3,{8}5,{16}6,2,
8,4,{8}6,{16}3,4,,6,{8}8,{16}2,1,3,8,{8}4,
{16}7,5,,2,{8}4,{16}7,1,8,3,,2,{8}5,{16}7,1,
5,3,{8}7,{16}1,3,,7,{8}5,{16}2,6,1,5,{8}2,
5h[16:1]/4h[16:1],4h[16:1]/5h[16:1],6h[16:1]/3h[16:1],2h[16:1]/7h[16:1],{16}1,8,,2,{8}5,{16}3,7,
1,5,3,7,1,8,,3,{8}5,{16}7,8,6,1,{8}5,
{16}3,4,,7,1b,8,{8}1,{16}2,4,,7,{8}8,{16}3,4,
2,5,{8}3,{16}7,8,,4,{8}3,{16}6,2,7,3,{8}6,
4h[16:1]/5h[16:1],5h[16:1]/4h[16:1],6h[16:1]/3h[16:1],7h[16:1]/2h[16:1],{16}1,8,,6,{8}4,{16}3,7,
1,5,{8}3,{16}6,5,,3,{8}1,{16}7,8,6,1,{8}5,
{16}2,4,,7,{8}5,{16}2,8,1,6,,7,{8}4,{16}2,8,
4,6,{8}2,{16}8,6,,2,{8}4,{16}7,3,8,4,{8}7,
{16}6,5,6,4,6,3,{32}6,7,8,1,{8}2/4,{16}8<5[8:1],3,{8}6,8/2,
{16}3<5[8:1],2,{8}1,{16}5/3,6,{8}7,{16}2,1,,1,{8}2-5[8:1],8/4,
2/1,8,{16}7,4,6,3,{8}5<7[8:1],{16}6,3,{4}5,
{16}2>4[8:1],8,{8}1,{16}7/2,6,{8}5,3/6,{16}2,7,,1,{8}8,
{16}6,3,,3,7h[32:1],2h[32:1],7h[32:1],2h[32:1],{8}6,{16}3,4,2,5,1,6,
8,7,8,6,1,5,{8}2,6/4,{16}7,5,,8,{8}2,
{16}3,4,{8}3,{16}6,5,{8}6,{16}3,1,{8}3,4,{16}5,1,
6,8,{8}6,{32}7/1,6,5,4,3,2,1,8,{16}7h[16:1]/3h[16:1],,,2h[16:1]/1h[16:1],,,{8}6h[16:1]/4h[16:1],
{16},8h[16:1],{8}2b,{16}1b-5[8:1],7b,3b,5b,{2}1b,
E
