&title=对一页水纹的记叙。
&artist=宵夜Mpa / 诗岸
&first=0.009
&des=【流动的自我】
&clock_count=4
&lv_5=14
&des_5=【流动的自我】
&inote_5=(195)
{16},,,,
,,,,
,,,,
,,,,
{16},,,,
,,,,
,,,,
,,,,
{16},,,,
,,,,
,,,,
,,,,
{16},,,,
,,,,
,,,,
,,,,
{16},,,,
,,,,
,,,,
,,,,
{16},,,,
,,2,3qq6[1:2],
4qq5[1:2],,,,
,,,,
{16},,,,
,,,,
,,,,
,,,,
{16},,,,
,,,,
,,,,
,,,,
{16},,,,
,,,,
,,,,
E4,,E5,,
{16}E6,,A3,,
A4,,A5,,
A6,,,,
,,6/3qq6[2:3],,
{16},,,,
,,,,
,,,,
,,,,
{16},,7,,
,,,,
,,7h[4:1],,
,,,,
{16}3h[4:1],,,,
,,7h[4:1],,
,,,,
,,B3,,
{16}E5,,B6,,
A3,,A4,,
A5,,A6,,
,,,,
{16}7pp3[1:2],6p4[1:2],5,,
,,,,
,,,,
,,,,
{16},,,,
,,,,
,,,,
,,,,
{16},,,,
,,,,
,,,,
,,D1,,
{16}E8,,D7,,
,,D5,,
E4,,D3,,
,,C,,
{16},,,,
,,4qq6[1:1],,
,,,,
,,,,
{16},,7,,
,,,,
E2,,C,,
E8,,A3,,
{16}A4,,A5,,
A6,,8h[4:1],,
,,,,
,,4h[4:1],,
{16},,,,
,,6h,,
2h,,6h,,
,,,,
{16},,,,
,,,,
,,5,,
4,,6,,
{16}3b/7b-3[8:1],,,,
,,,,
,,4,,
,,2h[4:1],,
{16},,4-8[8:1],,
4,,,,
,,5,,
,,7h[4:1],,
{16},,5-1[8:1],,
5,,,,
,,4,,
,,2h[4:1],,
{16},,3,,
4,,5,,
6,,3,,
4,,5,,
{16}6b/7b-3[8:1],,,,
,,,,
,,4,,
,,2h[4:1],,
{16},,3-7[8:1],,
3,,,,
,,5,,
,,7h[4:1],,
{16},,6-2[8:1],,
6,,,,
,,4,,
,,3,,
{16}4,,5,,
3,,5x,4x,
6x,,5,,
3b/7b-3[8:1],,,,
{16}4,,,,
,,2,,
,,2h[8:3],,
,,4-8[8:1],,
{16}4,,,2,
,,5,,
,,7h[8:3],,
,,5-1[8:1],,
{16}5,,,7,
,,4h[4:1],,
,,2,,
,,3,,
{16}4,,5,,
6,,3,,
4,,5,,
6/7-3[8:1],,,,
{16}3b/7b,,,,
,,4,,
,,2h[8:3],,
,,3-7[8:1],,
{16}3,,,2,
,,5,,
,,7h[8:3],,
,,6-2[8:1],,
{16}6,,,7,
,,4,,
,,2,,
,,3,,
{16}4,,5,,
3,,5x,4x,
6x,,5,,
3b/7b,,,,
{16}6,,6-1[8:1],,
,,2-5[8:1],,
,,2h[4:1],,
,,6,,
{16}5,,7,,
3,,4,,
2,,8,,
,,1h[8:1],,
{16}3,,,,
8h[8:1],,6,,
,,4/7,,
,,7,,
{16}6/5,,,,
2,,5,,
4/3,,8,7,
6-2[8:1],,4,,
{16}1b,,,,
,,5-1[8:1],,
,,6h[8:3],,
,,8-4[8:1],,
{16}8,,,6,
,,1,,
,,3h[8:3],,
,,1-5[8:1],,
{16}1,,,3,
,,8,,
,,7,,
5,,6,,
{16}2,,4,,
1>4[8:1],,6,7,
8b/1b,,,,
7,,7-4[8:1],,
{16},,3-8[8:1],,
,,3h[4:1],,
,,7,,
8,,6,,
{16}2,,1,,
3,,5,,
,,6h[8:1],,
8,,,,
{16}3h[8:1],,1,,
,,4/3,,
,,7,,
6/5,,1,2,
{16}3,,6,,
8h[16:3],,,4,
3/7-3[8:1],,,,
1bx,,,1x,
{16},,1x-6[8:1],,
,,5h[4:1],,
,,8-3[8:1],,
8,,7,,
{16},,4-8[8:1],,
4,,3,,
,,5-2[8:1],,
5,,6,,
{16},,8,,
8,,1h[4:1],,
,,4,,
8,,6,,
{16}4,,8,,
2-6[16:3],,6,,
2b,,,,
5,,3h[4:1],,
{16}5,,6h[8:1],,
2,,,,
3,,7h[4:1],,
3,,4h[8:1],,
{16}8,,,,
6,,1h[4:1],,
6,,5h[8:1],,
8,,,,
{16}3,,5,,
7qq6[4:1],,1,,
2>1[2:1],,,,
,,,,
{16},,,,
5h[4:1],,,,
2h[8:1],,4,,
3,,7h[8:1],,
{16}5,,5,,
6,,6,,
3-6[8:1],,,,
7-2[8:1],,,,
{16}4-1[8:1],,,,
8h[4:1],,,,
{24}2b,3,4,5qq6[8:3],,,
{16},,,,
{16},,,,
8,,,,
4,,3h[4:1],,
6,,5h[8:1],,
{16}2,,,,
6,,7h[4:1],,
3,,4h[8:1],,
8,,,,
{16}2,,1h[4:1],,
6,,5h[8:1],,
8>3[4:1],,,,
3<6[4:1],,,,
{16}7,,,,
8-5[4:1],,,,
5-2[4:1],,,,
2,,,,
{16}1,,1,,
6,,4,,
8,,,,
1/2,,,,
{16}8/7,,,,
6-2[8:1],5,7,,
3b,,,,
5,,7,,
{16}2>6[16:3],,4,,
2,,,,
1,,6,,
8p6[8:3],,3,,
{16}8b,,,,
,,,,
1,,5,,
2/6,,,,
{16}7/8>3[8:1],,,,
6-1[8:1],,6,,
5b,,,,
3,,1,,
{16}5>1[16:3],,7,,
5,,,,
6,,8,,
4-8[16:3],,2,,
{16}4b,,,,
2,,7,,
3,,6,,
5/4,,,,
{16}1/6,,7,,
2/8V64[4:1],,3,,
4bV28[4:1],,,,
,,,,
{16}4-1[8:1],,7,,
4,,,,
5,,2,,
7<3[16:3],,4,,
{16}7b,,,,
1,,3,,
8,,6,,
7/5,,,,
{16}4/2-6[8:1],,,,
7,,7,,
5bV71[4:1],,,,
1V35b[4:1],,,,
{16}5,,6,,
7h[4:1],,,,
5,,4,,
3,,2,,
{16}7/1,,1-5[8:1]/7-1[8:1],,
,,7/1,,
,,4,,
3/7h[4:1],,,,
{16}3,6,4,5,
1,,1,,
4b/2b-5-3[4:1],,,,
,,6,,
{16}6,,,,
5/7-5[8:1],,,,
,,3,,
4/2-5-3[4:1],,,,
{16},,6,,
6,,,,
7/5h[4:1],,,,
4,,4,,
{16}2,,2,,
5/1V35[4:1],,,,
,,6,,
6,,,,
{16}4/7-3[8:1],,,,
,,2,,
5/1V35[4:1],,,,
,,6,,
{16}6,,,,
5/7h[4:1],,,,
6,,6,,
8,,8,,
{16}3,,3,,
5b/2b-5-3[4:1],,1,,
,,6,,
6,,,,
{16}5/7-5[8:1],,8,,
,,3,,
4/2-5-3[4:1],,1,,
,,6,,
{16}6,,,,
7/5h[4:1],,,,
4,,4,,
2,,2,,
{16}5/1V35[4:1],,8,,
,,6,,
6,,,,
4/7-3[8:1],,8,,
{16},,2,,
5/1V35[4:1],,8,,
,,6,,
6,,,,
{16}3/7-3-5b[4:1],,6/2-6-1[4:1],,
,,,,
,,,,
8x,,4x,,
{16}8xpp1<6b[4:5],,,,
5b<6-4v3[1:1],,,,
,,,,
,,,,
{16},,,,
,,,,
,,,,
,,2h[4:1],,
{16},,6h[4:1],,
,,2,,
6,,,,
,,,,
{16},,,,
,,,,
,,2,,
,,6,,
{16},,2,,
,,6bx,,
2bx,,,,
1/3V52[4:1],,,,
{16}7-5[8:1],,7,,
,,,,
4/8z4[4:1],,,,
,,7,,
{16},,7,,
1/3V52[4:1],,,,
7-4[8:1],,7,,
,,,,
{16}5/1-5[8:1],,,,
6-8[8:1],,6,,
4-2[8:1],,4,,
1x>7[1:1],8x,7x-1v2>8b[1:3],,
{16},,,,
,,,,
,,,,
,,,,
{16},,,,
,,,,
,,,,
,,,,
{16},,,,
,,,,
,,,,
,,,,
{16},,4,,
4,,,,
8/6V47[4:1],,,,
2-4[8:1],,2,,
{16},,,,
5/1s5[4:1],,,,
,,2,,
,,2,,
{16}8/6V47[4:1],,,,
2-5[8:1],,2,,
,,,,
8/4,,,,
{12}2,4,3,
6,5,7,
{16}1bh[16:57],,,,
,,3-5[8:1],,
{16},3,,,
,,,,
,,7-4[8:1],,
,7,,,
{24},,,,,3,
{16},,3,,
,3-7[8:1],,,
3,,,,
{16},,,,
,8-3[8:1],,,
8,,,,
,,4-7[8:1],,
{16},4,,,
3V52[4:1],,,,
8-6[8:1],,8,,
,,,,
{16}5/1-5-2[4:1],,,,
,,6,,
,,6,,
4/3V52[4:1],,,,
{16},,7-5[8:1],,
7,,,,
1,,,,
5/1,,1,,
{16}6/2,,6,,
7b/3b,,,,
4,,8h[8:3],,
,,,,
{16}5,,5,6,
4,,8h[8:3],,
,,,,
5,6,4,,
{16}3,4,2,,
{32}6,,,,,3,,5,
,4,,,,8h[32:11],,,
{16},,,,
{16}3,,6,4,
5,,3,,
8bx,,4bx,,
8bx,,,,
{16}4/3V52[4:1],,,,
8-6[8:1],,8,,
,,,,
5/1-5-2[4:1],,,,
{16},,7,,
,,7,,
1/8,,,,
3/4,,,,
{16}5/6,,,,
2,,8,3,
7,4,6,,
5v4-2[2:1],,7,,
{16}8bxqq7>5b[16:15],,,,
,,,,
,,,,
2pp1[8:7],,,,
{16},,,,
,,7,,
,,6,,
,,5,,
{16},,4,,
8<1[8:5],,,,
,,,,
,,,,
{16}6bxqq5<3[16:17],,,,
,,,,
,,,,
1pp8[8:7],,,,
{16},,,,
,,,,
,,5,,
,,6,,
{16},,7,,
3q6[8:5],,,,
,,,,
,,,,
{16}7bxpp8<2b[16:15],,,,
,,,,
,,,,
4qq5[8:7],,,,
{16},,,,
,,8,,
,,7,,
,,6,,
{16},,5,,
4<3[8:5],,,,
,,,,
,,,,
{16}5qq4<2[1:1],,,,
,,,,
,,,,
8qq1[8:7],,,,
{16},,,,
,,,,
,,4,,
,,5h[4:1],,
{16},,1,,
1,,,,
2,,4,3,
5,,6,,
{16}5b/7h[8:3],,,,
,,6>2b[8:1],,
,,1xq5[8:1],,
7xp3[8:1],,,,
{16},,,,
,,2,,
4h[8:1],,8,,
4h[8:1],,2,,
{16}6h[8:1],,5p1[8:1],,
6h[8:1],,,,
8,,8,,
,,3,4,
{16}3b,,,,
2,,3,,
4>1b[8:1],,5,,
6pp7[4:1],,,,
{16},,,,
2,,2,,
5,,4/3,,
,,8/2,,
{16},,7/5h[8:3],,
D2,,D3,,
D4,,D5,,
D6,,D7,,
{16}2h[8:3],,,,
,,3-7b[8:1],,
,,8x-5[8:1],,
2x-5[8:1],,,,
{16},,,,
7,,3,,
,,1/5,,
,,3/7,,
{16},,7,,
5h[8:1],,1,,
5h[8:1],,7,,
3h[8:1],,4q8[8:1],,
{16}3b,,,,
,,,,
2<7b[8:1],,,,
6pp7[4:1],,,,
{16},,,,
2,,6,,
,,8/4,,
,,6/2,,
{16},,5/3,,
2,,5,4,
6,,3,,
7<7[4:3]`7?<7<5>3>1<7b[2:3],,8,,
{16},,,,
,,,,
,,,,
,,,,
{16},,,,
,,,,
4v5[1:2],,,,
,,,,
{16},,,,
,,,,
,,,,
,,,,
{16}3v6[1:2],,,,
,,,,
,,,,
,,,,
{16},,,,
,,,,
4v5-7[1:2],,,,
,,,,
{16},,,,
,,,,
,,,,
,,,,
{16}3v4[1:1],,,,
,,,,
,,,,
,,,,
{16},,,,
,,,,
5v4[1:2],,,,
,,,,
{16},,,,
,,,,
,,,,
,,,,
{16}7v2[1:2],,,,
,,,,
,,,,
,,,,
{16},,,,
,,,,
3-5v4-6[1:2],,,,
,,,,
{16},,,,
,,,,
,,,,
,,,,
{16}C,,,,
,,,,
,,,,
8-4[16:5],,,,
{16},,,,
,,,,
E1f,,,,
3,,5,,
{16}7-3[8:1],,1,,
3<6[8:1],,,,
8,,2,,
4-8[8:1],,6,,
{16}8b>3[8:1],,,,
5,,7,,
1-5[8:1],,3,,
5,,,,
{16}6/4h[4:1],,,,
1,,7/3,6/2,
5b/1b,,,,
6,,8,,
{16}2-6[8:1],,4,,
6-2[8:1],,,,
8,,,,
5-8[8:1],,1,,
{16}3b/5b,,,,
2,,8,,
3,,7,,
4/6,,1,,
{16}3/5,,7,,
8-5[8:1]/4-1[8:1],,2/6,,
4bx/8bx,,,,
2x/6x,,4,,
{16}6-2[8:1],,8,,
2<7[8:1],,,,
5,,3,,
1-5[8:1],,7,,
{16}5b>2[8:1],,,,
8,,6,,
4,,2,,
6/1,,,,
{16}7/8>3[8:1],,,,
6,,6,,
4bV68[4:1],,,,
8V24b[4:1],,,,
{16}4,,5,,
6h[4:1],,,,
5,,4,,
3,,2,,
{16}7/1,,1/7,,
,,4,,
6,,2,,
8/1,,7,5,
{16}6,,3,4,
2-6[8:1],,2,,
8b/Cf,,,,
7-5[8:1],,8,,
{16}4,,3-1[8:1],,
4,,,,
6-8[8:1],,5,,
1,,2-4[8:1],,
{16}1,,,,
7-1[8:1],,6,,
3-5[8:1],,2,,
8-5[8:1],,7,,
{16}4-1[8:1],,3,,
6,,7,,
8b,,,,
2-4[8:1],,1,,
{16}5,,6-8[8:1],,
5,,,,
3-1[8:1],,4,,
8,,7-5[8:1],,
{16}8,,,,
1,,2,,
3/5,,6,,
4/8,,2,,
{16}1/5,,7,,
8/4-8[8:1],,1/5,,
Cf,,,,
6-4[8:1],,7,,
{16}3,,2-8[8:1],,
3,,,,
5-7[8:1],,4,,
8,,1-3[8:1],,
{16}8,,,,
7-4[8:1],,6,,
3-8[8:1],,2,,
5<8[8:1],,6,,
{16}1>4[8:1],,2,,
7,,6,,
5b,,,,
3-5[8:1],,2,,
{16}6,,7-1[8:1],,
6,,,,
4-2[8:1],,5,,
1,,8-6[8:1],,
{16}1,,,,
3,,4,,
5,,6,,
7/3,,2,4,
{16}3,,6,5,
7,,2,,
8b/Cf,,,,
6<1[8:1],,5,,
{16}3,,4>1[8:1],,
2x,,,,
8<5[8:1],,7,,
1,,2>5[8:1],,
{16}4x,,,,
6-3[8:1],,7,,
8,,1-6[8:1],,
2,,3,,
{16}4-1[8:1],,5,,
6,,7,,
8b,,,,
3>8[8:1],,4,,
{16}6,,5<8[8:1],,
7x,,,,
1>4[8:1],,2,,
8,,7<4[8:1],,
{16}5x,,,,
2h[8:1],,3h[8:1],,
8h[8:1],,7h[8:1],,
3,6,2,7,
{16}1,8,2,7,
3,6,4,5,
2b/E5f,,,,
7-2[8:1],,6,,
{16}3,,4-1[8:1],,
1x,,,,
8-5[8:1],,7,,
3,,2-7[8:1],,
{16}4x,,,,
5h[8:1],,1h[8:1],,
6h[8:1],,2h[8:1],,
7h[8:1],,3,,
{16}5/4-8[8:1],,6-2[8:1],,
4,,6,,
5b>1[4:1],,,,
1x,8,7,6,
{16}5,4,3,2,
4b>8[4:1],,,,
8x,7,6,5,
4,3,2,1,
{16}3b>7[4:1],,,,
7x,6,5,4,
3,2,1,8,
3b,,5,4,
{16}5,,3/6,,
2/7,,8/1,,
2b-5-1[4:1],,,,
,,6,,
{16}6,,,,
5/7-4[8:1],,,,
,,3,,
5/2-5-1[4:1],,,,
{16},,6,,
6,,,,
7/5h[4:1],,,,
4-7[8:1],,4,,
{16}2-5[8:1],,2,,
1-5-7[4:1],,,,
,,3,,
3,,,,
{16}5/2-6[8:1],,,,
,,7,,
4/1-5-7[4:1],,,,
,,3,,
{16}3,,,,
4/2h[4:1],,,,
3-6[8:1],,3,,
1-4[8:1],,1,,
{16}8,,8,,
5b/7b-4-6[4:1],,6,,
,,3,,
3,,,,
{16}4/2V48[4:1],,1,,
,,1,,
7-4-6[4:1],,6,,
,,3,,
{16}3,,,,
2/4h[4:1],,,,
5-2[8:1],,5,,
7-4[8:1],,7,,
{16}1-5-3[4:1],,8,,
,,6,,
6,,,,
4/7-3[8:1],,8,,
{16},,2,,
4/1-5-3[4:1],,8,,
,,6,,
6,,,,
{16}2h[8:1],,4h[8:1],,
3h[8:1],,7h[8:1],,
6h[8:1],,1h[4:1],,
5h[4:1],,,,
{4},E
