&title=Disruptor Array
&artist=Akira Complex&kiraru
&first=0.04
&des=墓
&lv_5=14+
&des_5=墓
&inote_5=
(230){4},,,,,,,,5/4,
8/1,4/7h[8:1],6/5h[8:1],
4/7h[8:1],6/5h[8:1],{8}4/7-1[8:1],4,{4}7,
5/2h[8:1],3/4h[8:1],5/2h[8:1],3/4h[8:1],
{8}1-5[8:1],6<3[4:1],1,6,{2}4h[4:1],
{8}4/7h[8:1],4,6/5h[8:1],6,4/7h[8:1],4,6/5h[8:1],6,
4/7h[8:1],4,6/5h[8:1],6,8/4,8/4,7/5,6/5,
2/5h[8:1],2,4/3h[8:1],4,2/5h[8:1],2,4/3,{16}7,8,
{12}7,5,6,3,4,2,{8}8-4[8:1],8,,,{4}1/8,
{8}7/5,6,7/5,6,6/4,5,
2/4,3,4/2,3,4/2,3,2/4,5,
{32}1,2,{16}3h[8:1],{32},,7,6,{8}5h[8:1],1h[8:3],{32},,,,,,,,8,7,{16}6h[8:1],{32},2,,3,
{8}4h[8:1],8h[4:1],{16},,1,8,1/7,,,6/2,,,{8}5/3,
5/3,6,5/3,2,6/4,7,6/4,3,
7/5,1,7/5,3,6/8,4,8/6,2,
7,6,3,4,6,5,4/2,3/5,
{12}1,8,2,8,1,7,{4}8h[4:1],1,
5/4,8/1,{16}7/2,,,5,{8}6,7/8,
{16}2/4,,,3,{8}4,5/4,{16}2/1,,,6,{8}5,6/4,
{16}8h[16:3],,,2,{8}4,4/2,{16}7/8,,,6,{8}5,7/5,
6-1-6[4:1]/4-1[8:1],6/4,{4}4/6>8[4:1],,5h[4:1],
8,7/1,{16}2/1,,,6,{8}5,7/3,
{16}1/4,,,2,{8}4,5/4,{16}6/8,,,7,{8}5,6/4,
1-6[8:1],1,3-8[8:1],3,5-2[8:1],5,7-4[8:1],7,
{12}1,1,1,8,8,8,{8}5-1[8:1],5,,,{4}6,
2/8,{16}4/3,,,7,{8}5,3/4,
{16}2/1,,,6,{8}8,7/5,6/4,6/4,3,4/2,
{16}3/1h[8:1],,,6/8h[8:1],,,{8}4h[4:1]/3h[4:1],{16},,,,8/5,,,4/1,
,,{8}3h[4:1]/6h[16:5],{16},,,,6/3,,,7/2,,,{8}8/1,
{4}3/6<3[2:1],,,6<3[2:1],
,4,5,6-8[8:1],
5/6,3-1[8:1],4/3,6,
1-6[8:1]/2-5[8:1],2/1,8-3[8:1]/7-4[8:1],7/8,
{8}6h[4:13],3,4,5,3,4,5,3,
4,5,3,4,5,3,4,5,
5,4,3,4,5,3,4,5,
3,4,5,3,4,5,{12}6,4,5,
{8}3,3,3h[8:21],4,6,5,4,6,
5,4,6,5,4,4,5,6,
5,4,6,5,4,6,5,4,
6,5,4,3,1,2,3,6,
{4}6<1[4:1],{16}1,2,{8}3,{4}4-8[8:1],4/7,
3qq8[8:3],{16}8,7,{8}6,{4}4<7[8:1],4,
{8},1/8,{4}8/1-6[8:1],1/5<8[8:1],{16}2,3,{8}4,
{4}5V31[4:1],{16}1,8,7,6,5>2[8:1],8,7,6,{4}5,
{8},8/1,{4}1/8-6[8:1],8-2[8:1],8<5[8:1],
8,{16}8-5[8:1],1,2,3,{4}8,{8}1,1,
2-8[8:1],3,4,5,6-4[8:1],7,8,8w4[8:1],
,8,,7/1,6-1[8:1]/2-5-2[4:1],4,{4}6/2,
7h[4:1],6h[4:1],8h[4:1],{8}5,7h[4:1],
,5,{4}8h[4:1],{8}6,7,7,7,
{4}2h[4:1],3h[4:1],1h[4:1],{8}3,1h[4:1],
,3,{4}1h[4:1],{16}4,3,{8}4,4,2-6[8:1],
,2/1,{4}8-3[8:1],{16}8,,,4,,,{8}5,
{16}5-2[16:1],,,8,,,{8}7,{16}4-7[16:1],,,1,,,{8}8,
2,2,1/2,1/2,8/1,8/1,8/7,8/7,
{16}1,2,3,4,5,6,7,8,{8}1/8,6/5,{4}8/1,
{8}2/4,2,2/4,2,2/4,2,2/5,2,
2/8,2,6/5,5/4,4/3,5/4,{4}6b/5b,
{8}7/5,7,7/5,7,7/4,7,7/4,7,
{16}5,4/6,,3,{8}4/2,8/7,{4}8-5[8:1]/7-2[8:1],7/8,
{16}3/4,,,6,{8}6/5,1,{16}7/1,,,3,{8}4/3,6,
{16}6/1,,,7,{8}8/7,4,{16}5/2,,,3,{8}4/3,5,
6,6,6/5,6/5,5/4,5/4,4/3,4/3,
{16}5/2,1,8,7,6,5,4,3,2,1,8,7,6,5,4,3,
{1}2/8h[1:4],
{8}6,7,7,6,7,6,7,6,
,,,,,,,,6,
7,7,6,7,6,7,1,
{1}1h[4:15],
{8}2,3,3,2,3,2,3,2,
,,,,,,,,3,
2,2,3,4,4,4,5,
{192}2<7[0.2502##0.125],(240),{16},{64},,,{192},{8}3,4,5>2[8:1],6,7,8,8,
7>2[8:1],6,5,4<7[8:1],3,2,1,1,
2-8[8:1],3,4,5-3[8:1],6,7,8-6[8:1],1,
2,3>8[8:1],4,5,6>3[8:1],7,8,1,
{192}2v7[0.2402##0.12],(250),{16},{64},,,{192},{8}3,4,5v2[8:1],6,7,8v5[8:1],1,
2,3-8[8:1],4,5,6-3[8:1],7,8,1-6[8:1],
2,2,,5b,{4}6/5,{8}4b,4/3,
,5/4,6/3,7/2,{2}8/1,
{192}6b,(260),{16},{64},,,{192},{8}5,6,3,4,3,6,5,
{192}7b,(270),{16},{64},,,{192},{8}7,2,1,2,1,2,2,
{192}6b,(280),{16},{64},,,{192},{8}5,6,3,4,3,1,1,
{192}7b,(290),{16},{64},,,{192},{8}7,6,5,6,6,2b,3,
{192}6b,(300),{16},{64},,,{192},{8}5,6,3,3,8,8b,7,
{192}2b,(310),{16},{64},,,{192},{8}1,2,6,6,5b,{4}5,
{192}6b/1b,(320),{16},,,{64},,,{192},{8}7,8,7,8,7b,7,
{192}2b,(330),{16},{64},,,{192},{8}2,4,4,5,5,8,8,
{192}1,(340),{16},{64},,,{192},{8}4,3,4,2,5,4,5,
{192}3,(350),{16},{64},,,{192},{8}6,5,6,2,1,2,1,
{192}3,(360),{16},{64},,,{192},{8}7,8,7,2,6,5,6,
{192}8,(370),{16},{64},,,{192},{8}7,8,7,8,8,7,7,
{192}1,(380),{16},{64},,,{192},{8}1,2,2,3,3,4,4,
{192}5,(390),{16},{64},,,{192},{8}5,6,6,7,7,8,8,
{192}1,(400),{16},{64},,,{192},{8}1,7,5,6,5,8,5,
6,5,1,1h[8:3],{4},,{192}8/2,
(230),{1},{4},,,{16},,,{64},,,{192},{8}6b,
5,4/3,5,6/3b,4,6/5,4,
{16}3,5,4,6,5,6,4,5,{8}3h[8:1],6h,{4}5-8[8:1]/4-1[8:1],
{1}4/5,
{4},,,,,,,,,,5-8[8:1]/4-1[8:1],
5/4,
6/2>5[8:1],{8}2<7[8:1],8,2>5[8:1],4,2,{16}6,7,
{4}8<5[8:1],{8}8>3[8:1],2,8<5[8:1],6,8,{16}3,2,
{4}1-5[8:1],{8}1/7,6-8[8:1],6,5,{4}5,
{32},,,,7/8,6,{16}5,{32},,2/1,3,{8}4,{16}8/1,,,7/2,,,{8}6/3,
{4}4>1[8:1],{8}4<7[8:1],6,4>1[8:1],8,4,{16}7,6,
{4}5<8[8:1],{8}5>2[8:1],3,5,{16}1,8,{8}7,{16}5/1,6/2,
{4}3/7V15[4:1],{8}7,4>7[16:3],,4,6,6,
7,{16}2-6[8:1],1,{8}2,2w6[4:1],,,,,{4}8<5[8:1],
{8}8>3[8:1],{16}2,3,{8}8<5[8:1],{16}4,5,{8}8,2,
{4}2-6[8:1],{8}2/8,7pp4[4:1],,3,2,1,
6-8[8:1],5-1[8:1],6,5,4-8[8:1],3>6[16:5],4,3,
,5,{16},5,,,5,6,7,8,1,2,3,4,
{1}5<4b[4:15],
{2},,,,,,5h[4:1],
5h[4:1],
{4}4/5h[4:1],4,5/4h[4:1],5,
{16}6h[16:3],,,7h[16:3],,,{8}8h[8:1],{16}3h[16:3],,,2h[16:3],,,{8}1h[8:1],
{16}8h[8:1],,,8h[8:1]/1h[8:1],,,{8}8/1,{2}8-4[8:1]/1-5[8:1],
{1}2h[8:7]/7h[8:7],
{2},,7h[4:1]/B6/B5/E6h[4:1],
2h[4:1]/B3/B4/E4h[4:1],
{4}7/6,3/2,5-8[16:1]/4-1[16:1],5/4,
6/2>5[8:1],{8}2<7[8:1],8,2>5[8:1],{16}6,5,{8}4/2,{16}6,7,
{4}8<5[8:1],{8}8>3[8:1],1,8<5[8:1],{16}4,5,{8}6/8,{16}3,2,
{4}1-5[8:1],{8}1/7,6-8[8:1],6,4,3,1b,
{32},,,,7,E7,B6,B5,{16}E5,{32}1,E2,B2,B3,{16}E4,8b,,,7/1,,,{8}6/2,
{4}4>1[8:1],{8}4<7[8:1],{16}8,7,{8}6/4>1[8:1],{16}8,1,{8}4/2,{16}7,6,
{4}5<8[8:1],{8}5>2[8:1],{16}1,2,{8}5/3,{16}1,8,{8}7,{16}5/1,6/2,
{4}7/3>8[8:1],{8}3,4,5-1[8:1],8,5,2,
{24}2-6[12:1],3,4,8-5[12:1],7,6,{8}2-5-2[4:1],8,{2}2w6[8:1],
{4}8<5[8:1],{8}8>3[8:1],{16}4,3,{8}8<5[8:1],{16}4,5,{8}8,{16}3,2,
{4}1>4[8:1],{8}1<6[8:1],{16}5,6,{8}1,{16}5,4,{8}3<8[4:1],{16}8,1,
{4}2,{8}2-5[8:1],2,4-7[8:1],4,8-3[8:1],8,
{24}5,6,7,8,1,2,3,4,5,6,7,8,1,2,3,4,5,6,{4}7/2,
{8}8,{16}6,5,6,5,6,5,8,7,6,5,2,3,4,5,
{8}8,{16}3,4,3,4,3,4,3,2,1,8,6,7,8,1,
{8}3,{16}7,5,6,5,{8}7,{16}1,2,3,4,5/7,6,7/5,8/4,
{8}1,{16}7,8,6,8,{8}7h[8:1],{16}2,1,3,8,2,1,4,7,
{8}2,{16}7,5,6,5,6,5,8,3,4,3,4,3,4,3,
{8}8,{16}6,5,7,5,{8}6,{16}2,1,3,1,2,1,3,1,
{8}2,{16}6,5,6,5,{8}7,{16}3,4,3,4,2,1,2,1,
{8}3,{16}7,8,7,8,{8}7,{16}1x,2x,3x,4x,8x,7x,6x,5x,
2b,1,2,3,{8}2,{16}6b,5,6,7,{8}6,{16}3b,4,3,2,
{8}3,{16}7b,8,7,6,{8}7,{16}1b,2,3,4,6b,7,8,1,
3b,4,3,2,{8}3,{16}7b,8,7,6,{8}7,{16}2b,1,2,3,
{8}2,{16}6b,5,6,7,{8}6,{16}4b,3,2,1,7b,6,5,4,
2b,1,3,8,{8}4,{16}7b,8,6,1,{8}5,{16}3b,2,4,1,
{8}5,{16}6b,7,5,8,{8}4,{16}2,1,2,1,2,1,2,1,
{24}2,3,4,5,6,7,2,3,4,5,6,7,1,2,3,4,5,6,1,2,3,4,5,6,
{16}1,3,1,3,1,3,1,3,{32}1,2,3,4,1,2,3,4,1,2,3,4,1,2,3,4,
E
