&title=NEON WORLD
&artist=SOUND HOLIC
&first=-0.27
&lv_5=13+
&des=-SKY DEFENDER-
&inote_5=
(154){4},,,,7,
6,5,4h[1:1],
{1}1-4-8-5[2:1],
{4}3,2,1,8h[1:1],
{1}7-5v4-2[2:1],
{4}7<5[4:1],5>3[4:1],2,1<7[4:1],
7<5[4:1],5>3[4:1],{2}1h[2:1],
{8}2-6[8:1],2,7-3[8:1],7,1-5[8:1],1,4,4h[8:5],
,,,,{4}5,{8}5-1[0.3896##0.1829],6,
(164){1}5bx<4[4:7],
,5b<4b[4:5],
{8},,,,,,,,5h[1:1],
4,,6,,7,,8,
1h[8:3],2,,3,{16}4x/8x,,,6x/2x,,,{8}7x/3x,
8h[8:5],5,,6,,7,1pp4[2:1],8,
{2}1x,{4}8<5[8:1],8,
{8}1h[8:1],4,{16}4,2,5,3h[8:1],,7,2,8,4,6,{8}5,
{16}7,5,6,2,4,3,7,5,6,2,4,3,{4}7-3[32:5],
{8}7b,2,{16}2x,4,1,5h[8:1],,1,7,2,5,4,{8}6,
{16}1,4,2,5,8,6,1,4,2,5,8,6,{4}1-5[8:1],
{8}1,7,{16}7x,4,6,3h[8:1],,4,2,5,1,6,{8}2h[8:1],
{16}6,1,7,3,8,2,6,1,7,3,8,2,{4}6-2[8:1],
{8}6b,3,{16}3x,1,4,8h[8:1],,4,6,3,8,2,{8}6h[8:1],
{16}4,7,4,7,2,5,2,5,1,8,7,6,5,4,3,2,
{2}1xh[4:1]/5x-1[8:1],4xw8[32:5],
{4}6/2h[4:3],7,8-4[8:1],{8}8,2,
{4}1/5h[4:3],2,3-6[8:1],{8}3,7,
{4}7h[2:1],6,6>3[8:1],{8}7,8,
{16}1x<6[8:1],,,2,,,{8}3,{16}4x>1[8:1],,,5,,,{8}6,
{4}7h[2:1],8,1-5[8:1],{8}1,7,
{4}8/4h[2:1],7,6-3[8:1],{8}6,2,
2h[8:5],,,,,1,1,1,
{16}8x,7x,6x,5x,8x,1x,2x,3x,5x,6x,7x,8x,5x,4x,3x,2x,
{4}1bx/5,{8}7h[8:1],8,7h[8:1],6,7h[8:1],5,
6/4,6/4,{4}6/4pp8[2:1],B1/E2,B3/E3,
{8},,3h[8:1],1,3h[8:1],2,3h[8:1],4,
1/2,2/1,1/2pp5[2:1],2/1,,,,6,
7,8<4[8:1],1,8,,2-5[8:1],1,2,
,6-1[8:1],5,6,,2-6[8:1],1,2,
8,7,6/5,4,3,2,1/8,7,
{16}5b/6b,,,3b/4b,{32},,,2b/7b,{4},,{16},,{8}7-3[8:1],
6/5,7,{16}2,2h[16:3],,,,,{4}5x/4x,
{8}2-6[8:1],4/3,2,{16}7,7h[16:3],,,,,{4}1x/8x,
{8}8-4[8:1],7/5,8,{16}3,3h[16:3],,,,,{4}4x/3x,
{16}1-5[8:1],7,2,8,{8}1,{16}6,6h[16:3],,,,,{4}7x/6x,
{8}1,1,5<8[8:1],{16}1,1,5,2,{8}2,3,1/4,
5,5,1<6[8:1],{16}5,5,1,4,{8}4,3,2/5,
1>3[8:1],5-8[8:1],1,5,4x-1[8:1],7x<8b[8:3],4,7b,
,,,,4x-8[8:1],7/3,4,{16}5,5h[16:3],
,,,,{4}4/8,{8}2,3/4V25-1b[8:3],7,4x/6x-8[8:1],
,6,,2,7h[4:1],6,2h[4:1],3,
5h[4:1],6,7,8>2[8:1],,4,5,6<8[8:1],
,2,3,4qq6[2:1],,6,{4}7>2[8:1],
{8}7b,,,8,7,6/5V74-8b[8:3],4/3,5x/1x-3[8:1],
,1,{32},,,,,7,,,{8}3h[8:1],4,6h[8:1],{16}5,6,
{8}4,3,2,1,8/7,6,5,4,
{16}2,1,3,8,4,7,{8}5<3[8:3],,,,,4x,
5,5<7[8:1],4x,3,3>1[8:1],8x,7,
7-3[8:1],8x,1,1-5[8:1],6x,7,7<4[8:1],2x,
1,1>4[8:1],5x,6,6-2[8:1],5x,4,4-8[8:1],
7x,6,5<8[32:5],4x,3,2>5[8:1],1x,8,
7>2[8:1],6x,5,4<7[8:1],3x,2,1-5[8:1],8x,
7,6-2[8:1],5x,4,3-7[8:1],2x,1,8,
6x/5x,3/4,2-4[8:1],5-1[8:1],2,5,3x-7[8:1],7-1-4-2[8:3],
3,6h[4:1],,,,7x,8-6[8:1],5-1[8:1],
8,5,7x-2-8V64[2:1],2,3,3h[4:1],,,,3x,
1-7[8:1],6-2[8:1],1,6,4x-1[8:1],1V73-5[8:3],
4,7h[4:1],,,,6x,6-2[8:1],3-5[8:1],
6,3,1xh[32:1],8h[32:1],7h[32:1],6xh[32:1]/5xh[32:1],4h[32:1],3h[32:1],
2xh[16:1]/1xh[16:1],8xh[16:1]/7xh[16:1],6xh[16:1]/5xh[16:1],4xh[16:1]/2xh[16:1],{32}1x-6[8:1]*-4[8:1],8,7,6,5,4,3,2,{4}1b,
,E5/D5/3>6[4:13],,,,B7/B6,
,,,B1/B2,
,,,B3/B4,
,,,2h[2:1]/B4/Ch[2:1],
,,,7h[2:1]/B6/Ch[2:1],
{8},,,,,,7/8,
3/4,1/2,6/5,1/8,5-8[8:1]/4-1[8:1],
6b/3b,5b/4b,{16},,,,,,,,1,8,1,8,
1-5[8:1],8,1,8,{32}1b,B1,Cf,B5,,,,,,,,,,,,,{8}6x/4x,7,
8/1,3>8[8:1],,3<6[8:1],,3x,1-5[8:1],1,
2-6[8:1],2,3,4,5,6x/5x>2[8:1],,5/1,
7,5<8[8:1],,5/1,3,5qq1[2:1],,7,
{4}8<5[8:1],8b,{8},2,3,4qq2[8:1],
5/3,4xpp6[8:1],,4x,{32},,,,,2,,,{8}6h[8:1],5,
3h[8:1],{16}4,3,{8}5,6,7,8,1/2,3,
4,5,{16}7,8,6,1,5,2,{8}4>6[8:3],,,,,{4}5h[1:1],
{8},,,,,,6-3[8:1],
7,6/8-5[8:1],1,8/2-7[8:1],3,
2/4-1[8:1],5,{4}4/6h[4:3],,,3,
8/1s5[8:1]*s5[8:1],,E8/B7/B6/E6/E2/B2/B3/E4/Cf,
E
