&title=Tempestissimo
&artist=t+pazolite
&first=0.25
&des=外卖!!!
&lv_5=14+
&des_5=外卖!!!
&inote_5=
(231){4}5h[4:3],{8},,,,3h[8:1],4h[8:1],
{2}2h[4:1],4h[4:1]/3h[4:1],
5h[2:1],6h[2:1],
7h[2:1],8h[2:1],
{4}1,{8},,,,1h[8:1],8h[8:1],
,,{4}7/2,6/3,5/4,
{16}4,5,4,5,4,5,4,5,4,5,4,5,4,5,4,5,
{4}4,,,6h[4:1],
{8}3h[4:3],,,,,,,4,
{4}5/3,4/6,{2}7h[4:1]/5h[4:1],
6h[2:1],5h[2:1],
4h[2:1],3h[2:1],
{4}2,{8},,,,1,8,
{4}1,7/2,6/3,5pp8[2:3]/4qq1[2:3],
{8},,,,,,,,,,,,,,,,1h[4:1]/2-5[8:1],
2,{24},,,,,,{6}8h[6:1],7h[6:1],{24},,,,,,,{8}4,
3,2/4,3/5,4/6,5/7,6/7,
6h[4:1]/7-2[8:1],7,{24},,,,,,{6}5h[6:1],4h[6:1],{24},,,,,,,{8}1,
8,7,6/4,6/4,5/3,5/3,
{4}5/4-1[8:1],5/4,4/5-8[8:1],5/4,
5/4-2[8:1],5/4,4/5-7[8:1],5/4,
{8}1,1,8,8,2,2,7,7,
{16}1,8,1,8,1<6[8:1]*>4[8:1],8,1,8,{4}1w5[8:1],1,
{8}7-4[8:1],7,2-5[8:1],2,8-5[8:1],8,1-4[8:1],1,
8-4[8:1],8,1-5[8:1],1,7-2[8:1],7,3-6[8:1],3,
7-3[8:1],7,2-6[8:1],2,8-5[8:1],8,1-4[8:1],1,
7-3[8:1],7,1-3[8:1],1,7-5[8:1],7,,,2-4[8:1],
1-5[8:1],2,1,8-4[8:1],7-5[8:1],8,7,
2>4[8:1],1q5[8:1],2,1,8p4[8:1],7<5[8:1],8,7,
{2}3xh[4:1],{6}B7f/E8/E7,B3f/E3/E4,Cf,
{48},,,,7x,,,8x,,,{24}1x,{48},2x,,,{6}3x,4x-8b[8:1],{12},{4}4,
2b-5[8:1],8b-4[8:1],{8}1b-5[8:1],1b,{4}7b-4[8:1],
{16}4x,3x,2x,1x,{4}8x>4[4:1],{16}8,7,6,5,,,,,{4}2b-4[8:1],
8bv5[8:1],{8}1bv4[8:1],1b,{4}7b-5[8:1],
{16}5x,4x,3x,2x,{8}1x,8x-5[8:1],1x-4[8:1],8,{4}1,
{8}7-3[8:1],7,1-4[8:1],1,8-5[8:1],8,2-6[8:1],2,
{16}6x,7x,8x,1x,{8}2x,3x-5[8:1],{2}4x-2[8:1],
{8}8,8,7,7,6,6,5,5,
{16},,4,3,2,1,{8}8,{16}6,6,1,1,7,7,3,3,
5,5,{8}5xq1[4:1],,1q5[4:1],,5-7[8:1],,,,8,
{4}7/8-3[8:1],8/7-4[8:1],7/8,
{8}1/2,1/2>5[4:1],,5p8[4:1],,8-6[8:1],,,,5x,
{4}5/6-1[8:1],6/5-2[8:1],6/5,
{8}1,1/8q5[4:1],,5>2[4:1],,2-8[8:1],,,,2,
{4}2/1-6[8:1],1/2-5[8:1],2/1,
{8}6,6/5p1[4:1],,1>4[4:1],,4-6[8:1],,,,7,
{4}7/6-3[8:1],6/7-2[8:1],7/6,
1xpp4[2:1],1/8,7,6,
A5/D5,B6/B5,E8/E7,B1/B2,
8qq5[2:1],8/1,2,3,
D5/A4,B4/B3,E2/E3,B8/B7,
{2}1h[4:1]/2-5[8:1],8h[4:1]/7-4[8:1],
2h[4:1]/3-6[8:1],8h[4:1]/7-2[8:1],
{8}3,3,6,6,4,4,5,5,
{16}4,3,2,1,8,7,6,5,{4}4w8[8:1],4,
2h[4:1],1,{8}7-4[8:1],4-6[8:1],{4}7,
{8}8,1,2,3,5/4,5,{4}5/4,
4/3h[4:1],4,{8}2-5[8:1],5-3[8:1],{4}2,
{8}1,8,7,6,{4}5b/4b,4b/3b,
5-2[8:1]/3-6[8:1],5/3,{8}1x-7[8:1],7-4[8:1],{4}1,
{8}8x,7x,6x,5x,4/3,3,{4}4/3,
4-8[8:1]/3-7[8:1],4/3,{8}1x-6[8:1],6x-1[8:1],{4}1,
{8}8x,7x,6xz2[4:1],5x/4x,,,,,{4}1-5[8:1],
B7/B6,8-4[8:1],E2/B2,
1-5[8:1],E8/B7,8-4[8:1],B2/B3,
3-1[8:1]*-8[8:1],3,4-7[8:1]*-6[8:1],4,
4v7[8:1]/3v8[8:1],4/3,B1/B2/E3,B6/B5/E5,
{2}1h[4:1]/8-3[8:1],8h[4:1]/1-6[8:1],
1h[4:1]/8-4[8:1],8h[4:1]/1-5[8:1],
{8}4x-6[8:1],4x-2[8:1],4x-7[8:1],4x-1[8:1],4x-8[8:1],4x,{4}4x,
{8},7h[16:1]/1h[16:1],{4}1q3[8:3]/7p5[8:3],{8},,,,4xh[16:1],
4xh[16:1],4xh[16:1],4h[16:1],5h[16:1]/3h[16:1],6h[16:1]/2h[16:1],7h[16:1]/1h[16:1],8h[16:1],
8-4[8:1],1,2,3,{4}B1/B2,A1/D2/A2,
{8}5h[16:1],5h[16:1],5h[16:1],5h[16:1],6h[16:1]/4h[16:1],7h[16:1]/3h[16:1],8h[16:1]/2h[16:1],1h[16:1],
1,8/2,7/3,6/4,{4}5-1[8:1],5,
8/7-4[8:1],7/8,1/2-5[8:1],1/2,
{8}8,8,7,7,1,1,2,2,
6/3,6/3,6/3,6/3,5/4,5/4,4/5,5/4,
{16}3,6,3,6,3,6,3,6,4,5,4,5,4,5,4,5,
{1}4w8[2.0779##0.1299],
{2},,4b/Cf,
6b/Cf,
{4}2b/Cf,7b-3[8:1]/1b-5[8:1],7b/1b/Cf,4xh[1:2],
{24}3,2,1,8,7,6,{12}5,{24}3,2,1,8,7,6,{12}5,{24}3,2,1,8,7,6,{12}5,
{24}3,2,1,8,7,6,{12}5,{24}3,2,1,8,7,6,{12}5,{24}3,2,{4}1,
8x-3[8:1],8b/6b-1[8:1],6b/4b-7[8:1],4b/2x-5[8:1],
2b,{32}1,2,3,4,5,6,7,8b,,,,,,,,,{8}B6/E7/E6/E2/B2/E3,C,
,2-5[8:1],8-4[8:1],2,8,1-5[8:1],7-4[8:1],1,
{4}7-3[8:1],7-2[8:1],7<4[8:1],7,
3-7[8:1]/2-8[8:1],3/2,3-7[8:1]/4-6[8:1],4/3,
3/2,2/1,8-4[8:1]/1-5[8:1],8/1,
{8}1-3[8:1],8,1-4[8:1],7,1-5[8:1],6,{4}1b,
{8}8-6[8:1],1,8-5[8:1],2,8-4[8:1],3,{4}8b,
{8}1-3[8:1],1-7[8:1],1-4[8:1],1-6[8:1],1-5[8:1],1,{4}1,
8x,7x,{2}6h[8:1]/1pp4[8:15],
5h[8:1],8h[8:1],
7h[8:1],6h[8:1],
{16}1,7,1,7,2,6,2,6,3,5,3,5,4,4,4,4,
4,4,4,4,4,4,4,4,{4}4,{24}5xh[8:17],,,,,4,
3,2,1,8,7,6,,4,3,2,1,8,7,6,,4,3,2,1,8,7,6,,,4,
3,2,1,8,7,{12}6,{24}4,3,2,1,8,7,{12}6,{24}4,3,2,1,8,7,,,{4}6x-2[8:1],
6b/1b-5[8:1],1b/7b-4[8:1],7b/8bpp3[2:1],
{16}8b,,,,,,,,,,,,,3,2,1,
{8}8,7/8-3[8:1],,8-4[8:1],,8,1,2,
3-7[8:1],3,{4}3/6-2[8:1],4w8b[8:1],4b,
{8}6x/2x,6x/2x-5[8:1],,2/7,{16},,,7,8,1,{8}2,
2/3,1/2,8/1,7/8,{4}7-2[8:1]/6-3[8:1],7/6,
{8}1x-5[8:1],1x,8-4[8:1],8,2-6[8:1],2,7-3[8:1],7,
1-4[8:1],1,8-5[8:1],8,1v4[8:1],1,{16},,,,5x,
6,5,6,5,6,5,6,4,5,4,5,4,5,4,5,
3,4,3,4,3,4,3,4,5,6,7,8,1,2,{8}3,
5,5/4q8[4:1],,8q4[4:1],,4-6[8:1],,,,7,
{4}6/7-2[8:1],7/6-3[8:1],6/7,
{8}2,2/1p5[4:1],,5<8[4:1],,8-2[8:1],,,,3,
{4}2/3-5[8:1],3/2-8[8:1],2/3,
{8}5,5/8>3[4:1],,3-7[4:1],,7-5[8:1],,,,6x,
{4}5/6-1[8:1],6/5-2[8:1],6/5,
{8}1x,1/8p4[4:1],,4p8[4:1],,8-2[8:1],,,,3,
{4}2/3-6[8:1],3/2-7[8:1],2/3,
6,5,4,3,
A8,A7,A6,A5,
1,2,3,4,
B8,B7,B6,B5,
{8}1/2,1/2,2/3,2/3,3/4,3/4,4/5,4/5,
5/6,5/6,6/7,6/7,7/8,7/8,{4}8/1,
{16}2,7,2,7,3,6,3,6,4,5,4,5,{24}4,5,4,5,4,5,
{8}4,{16}E5,B5,{8}B6,1b,{4}2b,{8}3b,4bh[8:1],
{1}5bh[8:9],
{8},,4b,6b,3b,7b,2b,8b,
{1}1bw5b[8:1],
E
