&title=モエサザンクロス
&artist=弌誠「一堆片假名」​
&first=0.06
&des=Itz6+2+2iGD
&lv_5=十
&des_5=Itz6+2+2iGD
&inote_5=
(163){4},,,,,,,,4b,
4,4,4,
4,4,4,4,
4/Cfh[1:1],4,4,4,
4,E8/B7/B8/A7/D8/A8,B6/B5/E6/A6/D6/A5,A1/D2/A2/E2/B1/B2,
{16}4x,5,4x,5,4x,5,4x,5,4x,5,4x,5,4x,5,4,5,
4x,6,5x,6,3x,6,5x,6,2x,6,5,6,1,6,5,6,
3,4,3x,4,3x,4,3x,4,3x,4,3x,4,3x,4,3,4,
2x,5,4x,5,1x,5,4x,5,8x,5,4,5,2,5,4,5,
2,1,2x,1,3x,8,3x,8,4x,7,4x,7,5x,6,5,6,
4x,6,3x,6,2x,6,1x,6,8x,6,8,6,1x,7,2x,8,
1x,8,1x,8,2x,7,2,7,3x,6,3x,6,4x,5,4x,5,
{4}4x-8[8:1],4/6-2[8:1],6/1w5[12:1],1bx/Cf,
{16}4x,5,4x,5,4x,5,4x,5,4x,5,4x,5,4x,5,4x,5,
4x,6,3x,6,2x,6,1x,7,8x,7,8,7,8,7,8,7,
1x,8,1x,8,1x,8,1,8,1x,8,1,8,1x,8,1,8,
{4}1-5[8:1],1/7-3[8:1],7/2-6[8:1],8/2,
{16}4x,5,4,5,4,5,4,5,3x,6,3,6,3,6,3,6,
2x,7,2,7,2x,7,2,7,1x,8,1x,8,1x,8,1x,8,
1x,6,2,5,3,5,4,5,1x,8,1x,8,1x-3[8:1]*-4[8:1],8,1x,8,
{4}1bx-7[8:1]*-6[8:1],1w5[8:1],1bx/Cf,6x/4x,
{16}2,8,4,6,2,8,4,6,1,7,3,5,1,7,3,5,
2,8,4,6,1-5[8:1],7,3,5,{4}1x,7/3,
{16}1x,8,2,7,3,6,4,5,4,5,4,5,{4}4xh[16:1],
{48}8bx/2bx,7x/3x,6x/4x,5x,,,,,,,,,1bx/7bx,6x/2x,5x/3x,4x,,,,,,,,,8bxh[96:1]/2bxh[96:1],7xh[96:1]/3xh[96:1],6xh[96:1]/4xh[96:1],5xh[96:1],,,,,,,,,1bxh[96:1]/7bxh[96:1],2xh[96:1]/6xh[96:1],3xh[96:1]/5xh[96:1],4xh[96:1],,,,,,,,,{16}3x,
4,3,4,3,4,3,4,3,4,3,4,3,4,3,4,
2x,5,2,5,3,6,3,6,4x,5,4,5,3,6,2,7,
1x,8,1,8,2,5,2,5,4x,7,4,7,{8}3>8[8:1],3,
{4}3/7-5[8:1],7/3>8[8:1],3/7-5[8:1],7bx/Cf,
{16}3bx,4,3,4,3,4,3,4,2x,4,2,4,2,4,2,4,
2x,5,3x,6,4x,5,3x,6,2x-5[16:1],7,2,7,{4}2bx,
{16}5x,6,4,5,3x,4,3,6,5x,6,4,5,3x,4,2,3,
1x,8,2x,7,3x,6,4x,5,3x-8[16:1],6,4,5,{4}3bx,
{16}1x,7,1,7,3x,5,3,5,4x,6,4,6,4x,7,{8}3h[8:1],
{16}1x,3,8x,3,7x,3,{8}6xh[8:1],{16}1x,5,2x,5,3x,5,4x,5,
3bx,6,3,6,2x,7,2,7,1bx,8,1,8,2x,7,{8}2h[16:1],
{32}6x/3x,5/4,,,,,,,7/2,6/3,{16}5/4,{32},,,,8bxp1[4:1]/1bxq8[4:1],7/2,6/3,5/4,,,,,,,,,,,,,{4}D1f/A1/A8/D2/D8,
8bxV63[1:5],{8},,,,,,,,,,,,1,
1,{4}1,{8},,,,,,,,,,,,7,
7,7,7,8,8,1,1,
2,2,1,1,{4}8,1/8,
{12}7/3,7/3,7/3,7bx/3bx,,,6/2,6/2,6/2,2bx-7[12:1]/6bx-3[12:1],,,{4}2bx/6bx,
5bx/1bxs5[8:1],1bx/8bx,Cfh[4:1],
8bx,{8}6,{16}4,5,{8}3,8,{16}2,7,3,8,
2,7,{8}2,8,{16}1,7,{8}8,3,{16}7x,2x,6x,3x,
5x/4x,6x,{8}4x,7,{16}4,5,{8}3,5,8/1>3b[8:1],5/4,
{4}4bx/1bx-4b[8:1],1bx/8bx<6b[8:1],5bx/8bx-5b[8:1],8bx/5bx,
{16}4x,6,4,6,4,6,4,6,3x,5,3,5,3,5,3,5,
1x,7,1,7,2x-6-2b[4:1],8x-4b[16:3],2x,8x,,,,,,,,,4x,
6,4,6,3x,7,3,7,2x,8,2,8,1x,1x,1x,1x,
{4}1bx,4bx/5bx,{2}7bxV51[8:1]/2bxV48[8:1],
{16}2bx,6,3,6,2,6,1,6,2,6,4,6,2,6,8,6,
1x,7,2,8,1x-5>4[8:1],7,4,7,{4}1bx,{8}6,6,
{16}6x,3,7,3,8,3,7,3,5,3,7,3,1,3,2,8,
1x,7,2,6,3x-7>8[8:1],5,4,6,{4}3bx,{8}5x,5x,
{16}5x,4,6,3,7,2,8,1,8x,1,7,2,{4}6h[8:1],
{8}4-2[8:1],4-7[8:1],4x-8[8:1],4x-6[8:1],4x-1[8:1],4x,{4}4x,
8x-4b[12:1]/1x-5b[12:1],8bx/1bx,{8}2x/6x,7/3,2-7[8:1]/6-3[8:1],3V58[4:1]/7V14[4:1],
{2}2bx/6bx,{4}1x>8[2:11],1bx/Cf,
,,B5/E5,B3/E4,
,B5/E5,{2}B3/E4,
{4}B5/E5,B3/E4,,B5/E5,
{2}B3/E4,{4}B5/E5,B3/E4,
,B5/E5,{2}B3/E4,
{4}B5/E5,C,{2}3v5[1:11]/7v1[1:11],
,,,,,,,,,,,D6/E6/B6/A6/D7/E7/C/B5/B7,
{4},B5/E5/D5/B4/A4/E4/B3/D4/C,,,D1/E1/C/B8/B1/A8/D8/E8/B7,
,,B1/B2/E2/D2/A2/D3/E3/B3/C,
{1},,,{16}1bx,
1bx,1bx,1bx,1bxs5[16:1],1bx,1bx,1bx,{4}1bx,6bx/3bx,
{16}8x,3,4x,2,7x,5,1x,2,7x,3,6x,4,5x,1,7x,5,
1x,3,5x,4,8xw4[16:1],1,8x,1,{4}8bx,7bx/2bx,
{16}3x,5,4x,8,2x,4,8x,6,2x,8,3x,7,4x,6,3x,4,
2x,5,5x,7,3x,5,3x,6,{24}2bx,7bx,2bx,7bx,2bx,7bx,2x,6x,2x,6x,2x,6x,
{2}B1/B3/B8/B2/Cf,{8}8bx/7bx,3bx/4bx,2bx/1bxw5[8:1],6bx/5bxw1b[8:1],
{2}1bx/Cf,{16}1x,5,2,5,3,5,4,5,
5x,5x,6,5x,{24}7x,8x,1x,2x,{96},,,,,,,,{32}3x,4x,{96},,{12}5bx/2bx,{96},,,,,,,,{32}6x,5x,{96},,{6}7bx/4bx,
{32}3x,4x,{96},,{12}5bx/1bx,{192},,,,,,,,,,,,,,,,{64}1bx,2x,3x,4x,5x,6x,7x,8x,{8}1bx,{16}6x,4h,2,4h,8,2h,6,4h,
6,8h,4,2h,6,8h,4,8h,{8}2x,3x/2x,4x/3x,5x/4x,
{4}1x/8xz4[16:1]*v6[16:1],8bx,{16}1x,5,4,5,2,6,5,6,
1x,5,4,5,8,4,3,4,1x,5,8x,4,2x,6,3x,7,
2x,8,2,8,1x,1x,1x,1x,2x,8,2,8,2,7,2,7,
2x,6,2,6,2,5,2,5,3x,5,2,5,1x,5,8,5,
7x,5,8,6,{8}1,{16}2,8,1x,1x,1x,1x,8x,8x,8x,8x,
1x,1x,1x,1x,{8}2xh[16:1],2xh[16:1],{32}1bx/8bx,2,3,4,,,,,1bx/8bx,7,6,5,,,,,8bx/1bxs5[8:1]*z5[8:1],
2xh[64:1]/7xh[64:1],6xh[64:1]/3xh[64:1],5xh[64:1]/4xh[64:1],,,,,,,,,,,,,{8}8/1-3[8:1],8,1/7v4[8:1],4V61[8:1],
7/2>4[8:1],2,{4}2,{8}2/8-4[8:1],4V28[8:1],{4}2/8V64[16:3],
Cf,1bx-4[8:1],{8}1x/8,7,2/6-3[8:1],3V57[8:1],
6/2-8[8:1],2,{4}2,{8}7<3[8:1],3>7[8:1],{4}7,
Cf,3bx/7bx-3[8:1],{8}7/2,1,1V35[8:1],5v2[8:1],
{4}1/8-6[8:1],8-5<6-3<4-1>2-7>8[2:1],{2}8bx/B7f/E8/B6,
{4}6xz2b[1.8405##0.1227],{16}3bx,3bx,3bx,3bx,1bx,1bx,1bx,1bx,7bx,7bx,7bx,7bx,
5bxh[32:1],5bxh[32:1],5bxh[32:1],5bxh[32:1],{4}6bxh[32:1],7>3[12:1]*V13[12:1],7<3[12:1]*V53[12:1],
7w3[12:1],7bx,{24}3x,4x,3x,4x,3x,4x,{12}2xh[24:1],2xh[24:1],2xh[24:1],
{24}6x,5x,6x,5x,6x,5x,{12}7xh[24:1],7xh[24:1],7xh[24:1],{16}1xs5b[8:1],,,1x,1x-7[8:1]/8x-4[8:1],,,1x,
{48}1x<8<7<6>5[2:3],5?>4>3[2.546##0.092],,,,,,,,,,,{4}1bx,
E
